<?xml version="1.0" standalone="no"?>
<!DOCTYPE svg PUBLIC "-//W3C//DTD SVG 1.1//EN" "http://www.w3.org/Graphics/SVG/1.1/DTD/svg11.dtd">
<svg xmlns="http://www.w3.org/2000/svg">
<metadata>Copyright (C) 2016 by original authors @ fontello.com</metadata>
<defs>
<font id="codeless-icons" horiz-adv-x="1000" >
<font-face font-family="codeless-icons" font-weight="400" font-stretch="normal" units-per-em="1000" ascent="850" descent="-150" />
<missing-glyph horiz-adv-x="1000" />
<glyph glyph-name="tablet2" unicode="&#xe800;" d="M47-150h687c26 0 47 21 47 47v906c0 26-21 47-47 47h-687c-26 0-47-21-47-47v-906c0-26 21-47 47-47z m-16 953c0 9 7 16 16 16h687c9 0 16-7 16-16v-906c0-9-7-16-16-16h-687c-9 0-16 7-16 16v906z m78-797h563c9 0 16 7 16 16v719c0 8-7 15-16 15h-563c-8 0-15-7-15-15v-719c0-9 7-16 15-16z m16 719h531v-687h-531v687z m250-781c0-18 14-32 31-32s32 14 32 32c0 17-14 31-32 31s-31-14-31-31z" horiz-adv-x="781.3" />

<glyph glyph-name="phone2" unicode="&#xe801;" d="M47-150h500c26 0 47 21 47 47v906c0 26-21 47-47 47h-500c-26 0-47-21-47-47v-906c0-26 21-47 47-47z m-16 953c0 9 7 16 16 16h500c9 0 16-7 16-16v-906c0-9-7-16-16-16h-500c-9 0-16 7-16 16v906z m47-797h438c8 0 15 7 15 16v656c0 9-7 16-15 16h-438c-8 0-15-7-15-16v-656c0-9 7-16 15-16z m16 657h406v-625h-406v625z m187-719c0-18 14-32 32-32s31 14 31 32c0 17-14 31-31 31s-32-14-32-31z m-47 781h125c9 0 16 7 16 16s-7 15-16 15h-125c-8 0-15-7-15-15s7-16 15-16z" horiz-adv-x="593.8" />

<glyph glyph-name="document" unicode="&#xe802;" d="M47-150h656c26 0 47 21 47 47v656c0 1 0 1 0 2 0 0 0 1-1 2 0 2-1 4-2 6-1 0-1 0-1 1l-250 281c0 0 0 0 0 0-2 2-4 3-7 4-1 0-1 0-2 1-1 0-2 0-3 0h-437c-26 0-47-21-47-47v-906c0-26 21-47 47-47z m453 943l200-224h-184c-7 0-16 13-16 23v201z m-469 10c0 9 7 16 16 16h422v-227c0-25 20-54 47-54h203v-641c0-9-7-16-16-16h-656c-9 0-16 7-16 16v906z m141-390h406c9 0 16 7 16 15s-7 16-16 16h-406c-9 0-16-7-16-16s7-15 16-15z m0-125h406c9 0 16 7 16 15s-7 16-16 16h-406c-9 0-16-7-16-16s7-15 16-15z m0 250h187c9 0 16 7 16 15s-7 16-16 16h-187c-9 0-16-7-16-16s7-15 16-15z m0-375h406c9 0 16 7 16 15s-7 16-16 16h-406c-9 0-16-7-16-16s7-15 16-15z m0-125h406c9 0 16 7 16 15s-7 16-16 16h-406c-9 0-16-7-16-16s7-15 16-15z" horiz-adv-x="750" />

<glyph glyph-name="documents" unicode="&#xe803;" d="M47-25h562c26 0 47 21 47 47v594c0 0 0 1 0 2s0 1-1 2c0 2-1 5-3 7l-219 218c-2 2-4 4-7 4-1 0-1 1-2 1-1 0-1 0-2 0h-375c-26 0-47-21-47-47v-781c0-26 21-47 47-47z m391 822l165-166h-150c-8 0-15 7-15 16v150z m-407 6c0 9 7 16 16 16h359v-172c0-26 21-47 47-47h172v-578c0-9-7-16-16-16h-562c-9 0-16 7-16 16v781z m110-328h375c8 0 15 7 15 16s-7 15-15 15h-375c-9 0-16-7-16-15s7-16 16-16z m0-125h375c8 0 15 7 15 16s-7 15-15 15h-375c-9 0-16-7-16-15s7-16 16-16z m0 250h156c9 0 16 7 16 16s-7 15-16 15h-156c-9 0-16-7-16-15s7-16 16-16z m0-375h375c8 0 15 7 15 16s-7 15-15 15h-375c-9 0-16-7-16-15s7-16 16-16z m0-125h375c8 0 15 7 15 16s-7 15-15 15h-375c-9 0-16-7-16-15s7-16 16-16z m531 594h141v-172c0-26 21-47 46-47h172v-578c0-9-7-16-15-16h-562c-9 0-16 7-16 16v31c0 9-7 16-16 16s-16-7-16-16v-31c0-26 21-47 48-47h562c26 0 47 21 47 47v594c0 0-1 1-1 2s0 1 0 2c-1 2-2 5-4 7l-219 218c-2 2-4 4-7 4-1 0-1 1-2 1 0 0-1 0-2 0h-156c-9 0-16-7-16-16s7-15 16-15z m187-188c-8 0-15 7-15 16v150l165-166h-150z m-125-156h188c9 0 16 7 16 16s-7 15-16 15h-188c-8 0-15-7-15-15s7-16 15-16z m0-125h188c9 0 16 7 16 16s-7 15-16 15h-188c-8 0-15-7-15-15s7-16 15-16z m0-125h188c9 0 16 7 16 16s-7 15-16 15h-188c-8 0-15-7-15-15s7-16 15-16z m0-125h188c9 0 16 7 16 16s-7 15-16 15h-188c-8 0-15-7-15-15s7-16 15-16z" horiz-adv-x="1062.5" />

<glyph glyph-name="search2" unicode="&#xe804;" d="M47-150h656c26 0 47 21 47 47v234c0 1 0 1 0 1 2 1 3 2 5 3l250-249c3-3 7-5 11-5s8 2 11 5c6 6 6 16 0 22l-248 247c40 37 65 90 65 148 0 72-38 135-94 171 0 0 0 1 0 1v78c0 1 0 1 0 2 0 0 0 1-1 2 0 2-1 4-2 6-1 0-1 0-1 1l-250 281c0 0 0 0 0 0-2 2-4 3-7 4-1 0-1 0-2 1-1 0-2 0-3 0h-437c-26 0-47-21-47-47v-906c0-26 21-47 47-47z m766 453c0-95-78-172-172-172s-172 77-172 172 77 172 172 172 172-77 172-172z m-313 490l200-224h-184c-7 0-16 13-16 23v201z m-469 10c0 9 7 16 16 16h422v-227c0-25 20-54 47-54h203v-47c-24 10-51 15-78 15-58 0-110-24-147-62h-322c-9 0-16-7-16-16s7-15 16-15h298c-18-28-29-60-32-94h-266c-9 0-16-7-16-16s7-15 16-15h266c3-35 14-67 32-94h-298c-9 0-16-7-16-16s7-15 16-15h320c1 0 1 0 2 0 37-39 89-63 147-63 27 0 54 6 78 16v-219c0-9-7-16-16-16h-656c-9 0-16 7-16 16v906z m141-265h187c9 0 16 7 16 15s-7 16-16 16h-187c-9 0-16-7-16-16s7-15 16-15z m0-500h406c9 0 16 7 16 15s-7 16-16 16h-406c-9 0-16-7-16-16s7-15 16-15z" horiz-adv-x="1031.3" />

<glyph glyph-name="clipboard3" unicode="&#xe805;" d="M47-150h781c27 0 47 20 47 47v875c0 27-20 47-47 47h-125c-8 0-15-7-15-16s7-15 15-15h125c10 0 16-6 16-16v-875c0-10-6-16-16-16h-781c-10 0-16 6-16 16v875c0 10 6 16 16 16h125c9 0 16 7 16 15s-7 16-16 16h-125c-27 0-47-20-47-47v-875c0-27 20-47 47-47z m125 844c9 0 16 7 16 15s-7 16-16 16h-63c-8 0-15-7-15-16v-750c0-8 7-15 15-15h657c8 0 15 7 15 15v750c0 9-7 16-15 16h-63c-8 0-15-7-15-16s7-15 15-15h47v-719h-625v719h47z m109-63h313c38 0 62 25 62 63v140c0 9-7 16-15 16h-407c-8 0-15-7-15-16v-140c0-38 24-63 62-63z m-31 188h375v-125c0-21-10-31-31-31h-313c-20 0-31 10-31 31v125z m16-469h343c9 0 16 7 16 16s-7 15-16 15h-343c-9 0-16-7-16-15s7-16 16-16z m0 125h343c9 0 16 7 16 16s-7 15-16 15h-343c-9 0-16-7-16-15s7-16 16-16z m0-250h343c9 0 16 7 16 16s-7 15-16 15h-343c-9 0-16-7-16-15s7-16 16-16z m0-125h343c9 0 16 7 16 16s-7 15-16 15h-343c-9 0-16-7-16-15s7-16 16-16z" horiz-adv-x="875" />

<glyph glyph-name="newspaper" unicode="&#xe806;" d="M1156-56c38 0 63 25 63 62v828c0 9-7 16-16 16s-15-7-15-16v-828c0-27-20-31-32-31-3 0-31 1-31 31v828c0 9-7 16-16 16s-15-7-15-16v-828c0-41 31-62 62-62z m-1015 250h312c9 0 16 7 16 15v282c0 8-7 15-16 15h-312c-9 0-16-7-16-15v-282c0-8 7-15 16-15z m15 281h282v-250h-282v250z m-15 125h750c8 0 15 7 15 16v125c0 8-7 15-15 15h-750c-9 0-16-7-16-15v-125c0-9 7-16 16-16z m15 125h719v-94h-719v94z m735-219h-313c-8 0-15-7-15-15s7-16 15-16h313c8 0 15 7 15 16s-7 15-15 15z m0-93h-313c-8 0-15-7-15-16s7-16 15-16h313c8 0 15 7 15 16s-7 16-15 16z m0-94h-313c-8 0-15-7-15-16s7-15 15-15h313c8 0 15 7 15 15s-7 16-15 16z m0-94h-313c-8 0-15-7-15-16s7-15 15-15h313c8 0 15 7 15 15s-7 16-15 16z m0-94h-313c-8 0-15-7-15-15s7-16 15-16h313c8 0 15 7 15 16s-7 15-15 15z m-750-31h312c9 0 16 7 16 16s-7 15-16 15h-312c-9 0-16-7-16-15s7-16 16-16z m750-62h-313c-8 0-15-7-15-16s7-16 15-16h313c8 0 15 7 15 16s-7 16-15 16z m-750-32h312c9 0 16 7 16 16s-7 16-16 16h-312c-9 0-16-7-16-16s7-16 16-16z m15-154h1000c1 0 1 0 1 0 0 0 0 0 1 0 84 0 153 69 153 154v828c0 8-6 14-14 14s-14-6-14-14v-828c0-70-57-126-127-126s-126 56-126 126v828c0 8-7 14-14 14h-1000c-8 0-14-6-14-14v-828c0-85 69-154 154-154z m-126 968h972v-814c0-9 1-19 2-28 1-2 1-3 2-5 1-9 4-17 7-25 1-2 2-3 2-5 4-7 8-14 12-21 1-1 1-2 2-3 5-7 10-14 16-20 2-1 3-3 4-4 6-5 12-11 19-15h-912c-70 0-126 56-126 126v814z" horiz-adv-x="1312.5" />

<glyph glyph-name="notebook" unicode="&#xe807;" d="M734-150c28 0 47 20 47 47v875c0 27-19 47-47 47h-625c-27 0-46-20-46-47v-37c0-8 7-15 15-15s16 7 16 15v37c0 10 6 16 15 16h143v-907h-143c-9 0-15 6-15 16v28c0 9-7 16-16 16s-15-7-15-16v-28c0-27 19-47 46-47h625z m-453 938h453c10 0 16-6 16-16v-875c0-10-6-16-16-16h-453v907z m563-860v813c0 8-7 15-16 15s-15-7-15-15v-813c0-9 7-16 15-16s16 7 16 16z m-828 578h125c8 0 15 7 15 16s-7 16-15 16h-125c-9 0-16-7-16-16s7-16 16-16z m0 125h125c8 0 15 7 15 16s-7 16-15 16h-125c-9 0-16-7-16-16s7-16 16-16z m0-250h125c8 0 15 7 15 16s-7 16-15 16h-125c-9 0-16-7-16-16s7-16 16-16z m0-250h125c8 0 15 7 15 16s-7 16-15 16h-125c-9 0-16-7-16-16s7-16 16-16z m0 125h125c8 0 15 7 15 16s-7 16-15 16h-125c-9 0-16-7-16-16s7-16 16-16z m0-250h125c8 0 15 7 15 16s-7 16-15 16h-125c-9 0-16-7-16-16s7-16 16-16z" horiz-adv-x="843.8" />

<glyph glyph-name="book-open" unicode="&#xe808;" d="M1172 819h-500c-12 0-23-4-31-12-8 8-19 12-32 12h-500c-27 0-46-20-46-47v-875c0-27 19-47 46-47h500c13 0 24 4 32 11 8-7 19-11 31-11h500c27 0 47 20 47 47v875c0 27-20 47-47 47z m-563-938h-500c-9 0-15 6-15 16v875c0 10 6 16 15 16h500c10 0 16-6 16-16v-875c0-10-6-16-16-16z m579 16c0-10-6-16-16-16h-500c-10 0-16 6-16 16v875c0 10 6 16 16 16h500c10 0 16-6 16-16v-875z m78 859c-9 0-16-7-16-15v-813c0-9 7-16 16-16s15 7 15 16v813c0 8-7 15-15 15z m-1250-844c8 0 15 7 15 16v813c0 8-7 15-15 15s-16-7-16-15v-813c0-9 7-16 16-16z m531 626h-375c-9 0-16-7-16-16s7-16 16-16h375c9 0 16 7 16 16s-7 16-16 16z m0-125h-375c-9 0-16-7-16-16s7-16 16-16h375c9 0 16 7 16 16s-7 16-16 16z m0 250h-375c-9 0-16-7-16-16s7-16 16-16h375c9 0 16 7 16 16s-7 16-16 16z m0-375h-375c-9 0-16-7-16-16s7-16 16-16h375c9 0 16 7 16 16s-7 16-16 16z m0-125h-375c-9 0-16-7-16-16s7-16 16-16h375c9 0 16 7 16 16s-7 16-16 16z m0-125h-375c-9 0-16-7-16-16s7-16 16-16h375c9 0 16 7 16 16s-7 16-16 16z m562 500h-375c-8 0-15-7-15-16s7-16 15-16h375c9 0 16 7 16 16s-7 16-16 16z m0-125h-375c-8 0-15-7-15-16s7-16 15-16h375c9 0 16 7 16 16s-7 16-16 16z m0 250h-375c-8 0-15-7-15-16s7-16 15-16h375c9 0 16 7 16 16s-7 16-16 16z m0-375h-375c-8 0-15-7-15-16s7-16 15-16h375c9 0 16 7 16 16s-7 16-16 16z m0-125h-375c-8 0-15-7-15-16s7-16 15-16h375c9 0 16 7 16 16s-7 16-16 16z m0-125h-375c-8 0-15-7-15-16s7-16 15-16h375c9 0 16 7 16 16s-7 16-16 16z" horiz-adv-x="1312.5" />

<glyph glyph-name="browser" unicode="&#xe809;" d="M1297 538c-9 0-16-7-16-16v-625c0-9-7-16-15-16h-1219c-9 0-16 7-16 16v625c0 9-7 16-15 16s-16-7-16-16v-625c0-26 21-47 47-47h1219c26 0 47 21 47 47v625c0 9-7 16-16 16z m-31 312h-1219c-26 0-47-21-47-47v-187c0-9 7-16 16-16h1281c9 0 16 7 16 16v187c0 26-21 47-47 47z m15-219h-1250v172c0 9 7 16 16 16h1219c8 0 15-7 15-16v-172z m-734-656c9 0 16 7 16 16v500c0 8-7 15-16 15h-406c-9 0-16-7-16-15v-500c0-9 7-16 16-16h406z m-391 500h375v-469h-375v469z m547-94h469c9 0 16 7 16 16s-7 16-16 16h-469c-8 0-15-7-15-16s7-16 15-16z m0-156h469c9 0 16 7 16 16s-7 15-16 15h-469c-8 0-15-7-15-15s7-16 15-16z m0-156h469c9 0 16 7 16 15s-7 16-16 16h-469c-8 0-15-7-15-16s7-15 15-15z m-609 656c0-17 14-31 31-31s31 14 31 31c0 17-14 31-31 31s-31-14-31-31z m125 0c0-17 14-31 31-31s31 14 31 31c0 17-14 31-31 31s-31-14-31-31z m125 0c0-17 14-31 31-31s31 14 31 31c0 17-14 31-31 31s-31-14-31-31z" horiz-adv-x="1312.5" />

<glyph glyph-name="calendar2" unicode="&#xe80a;" d="M1063-103v594c0 8-7 15-16 15s-16-7-16-15v-594c0-9-7-16-15-16h-969c-9 0-16 7-16 16v594c0 8-7 15-15 15s-16-7-16-15v-594c0-26 21-47 47-47h969c26 0 47 21 47 47z m-922 234c-9 0-16-7-16-15s7-16 16-16h47v-109c0-9 7-16 15-16s16 7 16 16v109h187v-109c0-9 7-16 16-16s16 7 16 16v109h187v-109c0-9 7-16 16-16s15 7 15 16v109h188v-109c0-9 7-16 15-16s16 7 16 16v109h47c9 0 16 7 16 16s-7 15-16 15h-47v157h47c9 0 16 7 16 15s-7 16-16 16h-47v140c0 9-7 16-16 16s-15-7-15-16v-140h-188v140c0 9-7 16-15 16s-16-7-16-16v-140h-187v140c0 9-7 16-16 16s-16-7-16-16v-140h-187v140c0 9-7 16-16 16s-15-7-15-16v-140h-47c-9 0-16-7-16-16s7-15 16-15h47v-157h-47z m703 157v-157h-188v157h188z m-219 0v-157h-187v157h187z m-406 0h187v-157h-187v157z m672 468h132c3 0 8 0 8-15v-141h-1000v141c0 8 7 15 16 15h125c9 0 16 7 16 16s-7 16-16 16h-125c-26 0-47-21-47-47v-157c0-8 7-15 16-15h1031c9 0 16 7 16 15v157c0 34-21 47-40 47h-132c-9 0-16-7-16-16s7-16 16-16z m-188 0c9 0 16 7 16 16s-7 16-16 16h-344c-8 0-15-7-15-16s7-16 15-16h344z m-422-47v125c0 9-7 16-15 16s-16-7-16-16v-125c0-8 7-15 16-15s15 7 15 15z m516-15c9 0 16 7 16 15v125c0 9-7 16-16 16s-16-7-16-16v-125c0-8 7-15 16-15z" horiz-adv-x="1062.5" />

<glyph glyph-name="presentation" unicode="&#xe80b;" d="M16 756c-9 0-16-7-16-15v-532c0-25 21-46 47-46h875c26 0 47 21 47 46v532c0 8-7 15-16 15s-15-7-15-15v-532c0-8-7-15-16-15h-875c-9 0-16 7-16 15v532c0 8-7 15-15 15z m1000 94h-1063c-9 0-16-7-16-16s7-15 16-15h1063c8 0 15 7 15 15s-7 16-15 16z m-646-255c-5 6-14 7-21 1l-187-156c-7-5-8-15-2-22 5-6 15-7 22-2l176 147 178-177c3-3 7-5 11-5s8 2 11 5l223 223v-118c0-9 7-16 16-16s16 7 16 16v156c0 2-1 4-2 6-1 4-4 7-8 8-2 1-4 2-6 2h-156c-9 0-16-7-16-16s7-16 16-16h118l-212-212-177 176z m-118-737c4-7 13-10 21-6l211 111 212-111c2-1 5-2 7-2 6 0 11 3 14 8 4 8 1 17-7 21l-215 113c3 3 5 7 5 12v80c0 9-7 16-16 16s-15-7-15-16v-80c0-5 2-9 5-12l-216-113c-7-4-10-13-6-21z" horiz-adv-x="968.8" />

<glyph glyph-name="picture" unicode="&#xe80c;" d="M47-150h906c26 0 47 21 47 47v906c0 26-21 47-47 47h-906c-26 0-47-21-47-47v-906c0-26 21-47 47-47z m-16 953c0 9 7 16 16 16h906c9 0 16-7 16-16v-906c0-9-7-16-16-16h-906c-9 0-16 7-16 16v906z m610-344c34 0 62 28 62 63s-28 62-62 62-63-28-63-62 28-63 63-63z m0 94c17 0 31-14 31-31s-14-31-31-31-32 14-32 31 14 31 32 31z m-500-484h718c9 0 16 7 16 15v625c0 9-7 16-16 16h-718c-9 0-16-7-16-16v-625c0-8 7-15 16-15z m15 31v176c1 1 2 1 2 2l160 160c8 8 23 8 31 0l235-236c3-3 7-4 11-4 4 0 7 1 11 4l120 115c4 4 10 6 16 6 5 0 11-2 14-6l88-95c0 0 0 0 0 0v-122h-688z m688 594v-426l-65 71c-10 10-23 16-37 16 0 0 0 0 0 0-15 0-28-6-38-16l-109-104-224 225c-20 20-55 20-75 0l-140-140v374h688z" horiz-adv-x="1000" />

<glyph glyph-name="pictures" unicode="&#xe80d;" d="M47-25h812c26 0 47 21 47 47v781c0 26-21 47-47 47h-812c-26 0-47-21-47-47v-781c0-26 21-47 47-47z m-16 828c0 9 7 16 16 16h812c9 0 16-7 16-16v-781c0-9-7-16-16-16h-812c-9 0-16 7-16 16v781z m532-297c34 0 62 28 62 63s-28 62-62 62-63-28-63-62 28-63 63-63z m0 94c17 0 31-14 31-31s-14-31-31-31-32 14-32 31 14 31 32 31z m-454-469h688c9 0 16 7 16 16v594c0 8-7 15-16 15h-688c-8 0-15-7-15-15v-594c0-9 7-16 15-16z m16 32v144c1 1 2 1 2 2l160 160c8 8 22 8 30 0l235-235c3-3 7-5 11-5 4 0 8 2 11 4l121 115c4 4 10 7 15 7 6 0 11-3 15-6l56-64v-122h-656z m656 562v-393l-33 38c-10 10-24 16-38 16 0 0 0 0 0 0-14 0-27-6-37-15l-109-104-225 224c-19 20-54 20-74 0l-140-140v374h656z m-640-784c-9 0-16-7-16-16v-28c0-26 21-47 47-47h812c26 0 47 21 47 47v812c0 26-21 47-47 47h-28c-9 0-16-7-16-15s7-16 16-16h28c9 0 16-7 16-16v-812c0-9-7-16-16-16h-812c-9 0-16 7-16 16v28c0 9-7 16-15 16z" horiz-adv-x="1031.3" />

<glyph glyph-name="video3" unicode="&#xe80e;" d="M234 850h-187c-27 0-47-20-47-47v-906c0-27 20-47 47-47h1062c28 0 47 20 47 47v906c0 27-19 47-47 47h-875z m-203-953v906c0 10 6 16 16 16h172v-938h-172c-10 0-16 6-16 16z m219-16v938h656v-938h-656z m875 922v-906c0-10-6-16-16-16h-171v938h171c10 0 16-6 16-16z m-663-268c-5 3-11 3-16 1-5-3-8-8-8-14v-375c0-6 3-11 8-14 2-1 5-2 7-2 3 0 6 1 9 3l281 187c4 3 7 8 7 13s-3 11-7 13l-281 188z m7-359v317l237-159-237-158z m-313 424h-62c-9 0-16-7-16-16s7-15 16-15h62c9 0 16 7 16 15s-7 16-16 16z m-62 94h62c9 0 16 7 16 15s-7 16-16 16h-62c-9 0-16-7-16-16s7-15 16-15z m62-219h-62c-9 0-16-7-16-16s7-15 16-15h62c9 0 16 7 16 15s-7 16-16 16z m0-125h-62c-9 0-16-7-16-16s7-15 16-15h62c9 0 16 7 16 15s-7 16-16 16z m0-125h-62c-9 0-16-7-16-16s7-15 16-15h62c9 0 16 7 16 15s-7 16-16 16z m0-125h-62c-9 0-16-7-16-16s7-15 16-15h62c9 0 16 7 16 15s-7 16-16 16z m0-125h-62c-9 0-16-7-16-16s7-15 16-15h62c9 0 16 7 16 15s-7 16-16 16z m844 594h63c8 0 15 7 15 15s-7 16-15 16h-63c-9 0-16-7-16-16s7-15 16-15z m0 125h63c8 0 15 7 15 15s-7 16-15 16h-63c-9 0-16-7-16-16s7-15 16-15z m0-250h63c8 0 15 7 15 15s-7 16-15 16h-63c-9 0-16-7-16-16s7-15 16-15z m0-125h63c8 0 15 7 15 15s-7 16-15 16h-63c-9 0-16-7-16-16s7-15 16-15z m0-125h63c8 0 15 7 15 15s-7 16-15 16h-63c-9 0-16-7-16-16s7-15 16-15z m0-125h63c8 0 15 7 15 15s-7 16-15 16h-63c-9 0-16-7-16-16s7-15 16-15z m63-94h-63c-9 0-16-7-16-16s7-15 16-15h63c8 0 15 7 15 15s-7 16-15 16z" horiz-adv-x="1156.3" />

<glyph glyph-name="gift2" unicode="&#xe80f;" d="M47 319c-9 0-16-7-16-16v-375c0-26 21-47 47-47h313c8 0 15 7 15 16s-7 15-15 15h-313c-8 0-15 7-15 16v375c0 9-7 16-16 16z m1219 0c-9 0-16-7-16-16v-375c0-9-7-16-16-16h-656c-8 0-15-7-15-15s7-16 15-16h656c26 0 47 21 47 47v375c0 9-7 16-15 16z m-703 484c0-8 7-15 15-15h656c9 0 16-7 16-16v-280c0-9 7-16 16-16s15 7 15 16v280c0 26-21 47-47 47h-656c-8 0-15-7-15-16z m-485 16c-26 0-47-21-47-47v-280c0-9 7-16 16-16s16 7 16 16v280c0 9 7 16 15 16h313c8 0 15 7 15 15s-7 16-15 16h-313z m1219-405h-638c13 5 24 12 31 19 47 48 47 124 0 172-46 45-125 45-171 0-7-8-14-18-19-30v259c0 9-7 16-16 16s-15-7-15-16v-413c-53 22-147 67-166 106-13 25-15 54-6 80 9 27 28 49 53 61 8 4 11 13 7 21-3 8-13 11-20 7-33-16-58-44-69-79s-10-71 7-104c19-38 82-75 133-99h-392c-9 0-16-7-16-16s7-15 16-15h292c-12-6-23-12-30-20-48-47-48-124 0-171 23-23 53-35 85-35s63 12 86 35c8 8 14 19 20 32v-358c0-9 7-16 15-16s16 7 16 16v509c53-22 146-67 165-105 13-25 15-54 6-81-9-26-28-48-53-60-8-4-11-14-8-21 3-6 9-9 14-9 3 0 5 0 7 2 33 16 58 44 69 78s9 72-7 105c-19 38-81 74-133 99h737c9 0 16 7 16 15s-7 16-16 16z m-756 169c17 16 40 26 64 26s46-10 63-26c35-36 35-93 0-128-27-26-118-37-168-40 4 58 17 143 41 168z m-114-369c-34-34-93-34-127 0-35 35-35 92 0 127 26 27 118 38 168 41-4-58-17-143-41-168z" horiz-adv-x="1312.5" />

<glyph glyph-name="bargraph" unicode="&#xe810;" d="M813 522v-625c0-6 1-11 2-16h-99c2 5 3 10 3 16v906c0 26-21 47-47 47h-219c-26 0-47-21-47-47v-906c0-6 1-11 3-16h-99c1 5 3 10 3 16v344c0 26-21 47-47 47h-219c-26 0-47-21-47-47v-344c0-26 21-47 47-47h1031c26 0 47 21 47 47v625c0 26-21 47-47 47h-219c-25 0-46-21-46-47z m-657-641h-109c-9 0-16 7-16 16v344c0 8 7 15 16 15h219c8 0 15-7 15-15v-344c0-9-7-16-15-16h-110z m297 0c-8 0-15 7-15 16v906c0 9 7 16 15 16h219c9 0 16-7 16-16v-906c0-9-7-16-16-16h-219z m641 641v-625c0-9-7-16-16-16h-219c-8 0-15 7-15 16v625c0 9 7 16 15 16h219c9 0 16-7 16-16z" horiz-adv-x="1125" />

<glyph glyph-name="grid2" unicode="&#xe811;" d="M891 506c8 0 15 7 15 16s-7 16-15 16h-235v234c0 9-7 16-15 16s-16-7-16-16v-234h-281v234c0 9-7 16-16 16s-15-7-15-16v-234h-235c-8 0-15-7-15-16s7-16 15-16h235v-281h-235c-8 0-15-7-15-16s7-15 15-15h235v-266c0-9 7-16 15-16s16 7 16 16v266h281v-266c0-9 7-16 16-16s15 7 15 16v266h235c8 0 15 7 15 15s-7 16-15 16h-235v281h235z m-266-281h-281v281h281v-281z m344-328v906c0 26-21 47-47 47h-875c-26 0-47-21-47-47v-906c0-26 21-47 47-47h875c26 0 47 21 47 47z m-938 0v906c0 9 7 16 16 16h875c9 0 16-7 16-16v-906c0-9-7-16-16-16h-875c-9 0-16 7-16 16z" horiz-adv-x="968.8" />

<glyph glyph-name="expand2" unicode="&#xe812;" d="M1000-103v906c0 26-21 47-47 47h-906c-26 0-47-21-47-47v-281c0-9 7-16 16-16s15 7 15 16v281c0 9 7 16 16 16h906c9 0 16-7 16-16v-906c0-9-7-16-16-16h-281c-9 0-16-7-16-15s7-16 16-16h281c26 0 47 21 47 47z m-953 547c-26 0-47-21-47-47v-500c0-26 21-47 47-47h500c26 0 47 21 47 47v525l219 218v-212c0-8 7-15 15-15s16 7 16 15v250c0 9-7 16-16 16h-250c-8 0-15-7-15-16s7-15 15-15h212l-218-219h-525z m516-547c0-9-7-16-16-16h-500c-9 0-16 7-16 16v500c0 9 7 16 16 16h516v-516z" horiz-adv-x="1000" />

<glyph glyph-name="focus" unicode="&#xe813;" d="M266 850h-219c-26 0-47-21-47-47v-187c0-9 7-16 16-16s15 7 15 16v187c0 9 7 16 16 16h219c8 0 15 7 15 15s-7 16-15 16z m1000 0h-219c-9 0-16-7-16-16s7-15 16-15h219c8 0 15-7 15-16v-187c0-9 7-16 16-16s16 7 16 16v187c0 26-21 47-47 47z m31-750c-9 0-16-7-16-16v-187c0-9-7-16-15-16h-219c-9 0-16-7-16-15s7-16 16-16h219c26 0 47 21 47 47v187c0 9-7 16-16 16z m-1281 0c-9 0-16-7-16-16v-187c0-26 21-47 47-47h219c8 0 15 7 15 16s-7 15-15 15h-219c-9 0-16 7-16 16v187c0 9-7 16-15 16z m718 156c9 0 16 7 16 16v156c0 9-7 16-16 16h-156c-8 0-15-7-15-16v-156c0-9 7-16 15-16h156z m-140 157h125v-125h-125v125z" horiz-adv-x="1312.5" />

<glyph glyph-name="edit2" unicode="&#xe814;" d="M47-150h906c26 0 47 21 47 47v906c0 26-21 47-47 47h-906c-26 0-47-21-47-47v-906c0-26 21-47 47-47z m-16 953c0 9 7 16 16 16h906c9 0 16-7 16-16v-906c0-9-7-16-16-16h-906c-9 0-16 7-16 16v906z m94-843c2 0 3 0 5 1l312 93c3 1 5 2 7 4l315 319c1 0 1 1 2 2l114 115c19 18 19 49 0 68l-164 164c-19 19-50 19-69 0l-116-117c-1-1-1-2-2-2l-316-317c-2-1-3-4-4-6l-99-304c-2-5 0-11 4-15 3-3 7-5 11-5z m418 616l32-33-266-267-54 12 288 288z m-215-325l269 270 76-76-273-267h-72v73z m403 137l-289-293-18 63 271 265 36-35z m-497-127l63-15v-83c0-9 7-16 16-16h82l19-69-265-79 85 262z m436 443c6 7 17 7 24 0l164-164c7-7 7-18 0-24l-106-106-188 188 106 106z" horiz-adv-x="1000" />

<glyph glyph-name="adjustments" unicode="&#xe815;" d="M969 850h-906c-26 0-63-37-63-62v-876c0-25 37-62 63-62h906c25 0 62 37 62 62v876c0 25-37 62-62 62z m31-938c0-8-22-31-31-31h-906c-9 0-32 23-32 31v876c0 8 23 31 32 31h906c9 0 31-23 31-31v-876z m-484 766c-35 0-63-28-63-62s28-63 63-63 62 28 62 63-28 62-62 62z m0-94c-18 0-32 14-32 32s14 31 32 31 31-14 31-31-14-32-31-32z m250-406c-35 0-63-28-63-62s28-63 63-63 62 28 62 63-28 62-62 62z m0-94c-18 0-32 14-32 32s14 31 32 31 31-14 31-31-14-32-31-32z m-500 250c-35 0-63-28-63-62s28-63 63-63 62 28 62 63-28 62-62 62z m0-93c-18 0-32 14-32 31s14 31 32 31 31-14 31-31-14-31-31-31z m0 140c8 0 15 7 15 16v281c0 9-7 16-15 16s-16-7-16-16v-281c0-9 7-16 16-16z m0-218c-9 0-16-7-16-16v-94c0-8 7-15 16-15s15 7 15 15v94c0 9-7 16-15 16z m250 343c-9 0-16-7-16-15v-438c0-8 7-15 16-15s15 7 15 15v438c0 8-7 15-15 15z m250-281c8 0 15 7 15 16v437c0 9-7 16-15 16s-16-7-16-16v-437c0-9 7-16 16-16z" horiz-adv-x="1031.3" />

<glyph glyph-name="ribbon2" unicode="&#xe816;" d="M47 569c-9 0-16-7-16-16v-654c0-21 10-33 18-39 10-7 22-10 33-10 6 0 12 1 16 2 92 28 292 234 343 288 50-54 244-260 336-288 12-4 33-4 49 8 8 6 18 18 18 39v654c0 9-7 16-16 16s-15-7-15-16v-654c0-9-4-12-6-14-6-4-15-5-21-3-95 29-331 288-333 291-3 3-7 5-11 5-4 0-9-2-12-5-2-2-246-262-341-291-6-2-15-1-21 3-2 2-5 5-5 14v654c0 9-7 16-16 16z m828 78v156c0 26-21 47-47 47h-781c-26 0-47-21-47-47v-156c0-9 7-16 16-16h843c9 0 16 7 16 16z m-31 16h-813v140c0 9 7 16 16 16h781c9 0 16-7 16-16v-140z" horiz-adv-x="875" />

<glyph glyph-name="hourglass" unicode="&#xe817;" d="M657 834c0 9-7 16-16 16h-626c-9 0-16-7-16-16s7-15 16-15h626c9 0 16 7 16 15z m-32-175v113c0 9-7 16-16 16h-560c-8 0-15-7-15-16v-113c0-155 119-261 188-309-79-54-191-158-191-309v-113c0-9 7-16 16-16h562c9 0 16 7 16 16v112c0 155-121 262-190 310 79 54 190 158 190 309z m-297-565l150-150h-300l150 150z m70 269c-5-3-7-8-7-13s2-10 7-13c59-37 196-141 196-297v-96h-72c0 0 0 0 0 1l-178 178v24c0 9-7 16-16 16s-15-7-15-16v-24l-178-178c-1-1-1-1-1-1h-71v97c0 149 122 249 195 296 5 3 8 8 8 13s-3 10-8 13c-58 37-195 140-195 296v97h531v-97c0-149-123-249-196-296z m88 207h-307c-6 0-11-3-14-8-2-5-2-11 1-16 37-63 91-102 148-143l5-3c3-2 6-3 9-3s7 1 9 3c8 6 17 11 25 17 51 36 104 73 137 129 3 5 3 11 0 16-3 5-8 8-13 8z m-142-127c-5-4-11-8-16-11-47 33-88 64-120 106h248c-29-37-70-66-112-95z m-329-593h626c9 0 16 7 16 16s-7 15-16 15h-626c-9 0-16-7-16-15s7-16 16-16z m313 406c-8 0-15-7-15-15v-32c0-8 7-15 15-15s16 7 16 15v32c0 8-7 15-16 15z m0 94c-8 0-15-7-15-16v-31c0-8 7-15 15-15s16 7 16 15v31c0 9-7 16-16 16z" horiz-adv-x="656.3" />

<glyph glyph-name="lock2" unicode="&#xe818;" d="M438 850c-173 0-313-140-313-312v-94h-47c-43 0-78-35-78-78v-438c0-43 35-78 78-78h719c43 0 78 35 78 78v438c0 43-35 78-78 78h-47v94c0 172-140 312-312 312z m-282-312c0 155 126 281 282 281s281-126 281-281v-94h-94v94c0 103-84 187-187 187s-188-84-188-187v-94h-94v94z m438-94h-313v94c0 86 70 156 157 156s156-70 156-156v-94z m-210-250l-156-156h-143l156 156h143z m188 0l-157-156h-143l156 156h144z m187 0l-156-156h-143l156 156h143z m85 0v-156h-197l156 156h41z m-804-156h-9v156h166l-157-156z m757-157h-719c-26 0-47 21-47 47v78h813v-78c0-26-21-47-47-47z m47 485v-141h-813v141c0 26 21 47 47 47h719c26 0 47-21 47-47z" horiz-adv-x="875" />

<glyph glyph-name="megaphone" unicode="&#xe819;" d="M1234 850c-8 0-15-7-15-16v-968c0-9 7-16 15-16s16 7 16 16v968c0 9-7 16-16 16z m-55-38c-6 3-12 2-17-1l-17-14c-93-74-249-197-567-197h-433c-46 0-82-37-82-84v-334c0-45 36-82 82-82h106c3-35 16-119 77-180 46-47 109-70 188-70 8 0 15 7 15 16s-7 15-15 15c-70 0-126 21-166 61-52 52-65 126-68 158h94c3-21 11-59 40-88 24-24 58-37 100-37 8 0 15 7 15 16s-7 15-15 15c-33 0-59 10-78 28-20 21-28 49-31 66h169c319 0 476-124 570-198l16-13c3-2 6-3 10-3 2 0 5 1 7 2 5 2 8 8 8 14v896c0 6-3 12-8 14z m-1085-630v334c0 29 23 53 51 53h105v-438h-105c-29 0-51 22-51 51z m1062-248c-98 77-260 197-580 197h-181c-2 1-3 1-5 1 0 0 0 0 0 0-1 0-3 0-5-1h-104v438h297c320 0 481 121 578 197v-832z m-1140 233c8 0 15 7 15 16v334c0 9-7 16-15 16s-16-7-16-16v-334c0-9 7-16 16-16z" horiz-adv-x="1250" />

<glyph glyph-name="shield2" unicode="&#xe81a;" d="M422 850c-279 0-413-158-418-164-3-3-4-7-4-10v-315c0-265 245-423 350-479 7-4 17-1 21 7 4 7 1 17-7 21-124 66-333 212-333 451v309c22 23 145 143 375 149v-953c0-9 7-16 16-16 5 0 9 2 12 5 51 22 410 188 410 511v312c0 4-1 7-4 10-4 6-116 137-348 160-9 1-16-5-17-14-1-8 5-16 14-17 196-20 303-123 324-145v-306c0-280-293-436-375-475v943c0 9-7 16-16 16z" horiz-adv-x="843.8" />

<glyph glyph-name="trophy2" unicode="&#xe81b;" d="M797 819c9 0 16 7 16 15s-7 16-16 16h-531c-9 0-16-7-16-16s7-15 16-15h531z m0-31h-594c-102 0-150-37-172-67-27-38-32-88-15-142 28-82 121-182 178-226 2-2 6-3 9-3 5 0 9 2 13 6 5 7 4 17-3 22-53 41-142 136-167 211-14 44-11 84 10 113 26 36 76 54 147 54h47v-297c0-210 209-331 251-353 0-2-1-4-1-6v-78c0-9 7-16 16-16s15 7 15 16v78c0 2 0 4-1 5 48 22 283 143 283 354v297h46c71 0 122-18 148-54 21-29 24-69 9-113-19-59-117-173-166-211-7-5-8-15-3-22 3-4 8-6 12-6 4 0 7 1 10 3 54 42 155 160 177 226 18 54 13 104-14 142-22 30-70 67-173 67h-62z m-16-329c0-190-223-306-265-326-38 21-235 137-235 326v297h500v-297z m-437-484c-36 0-63-27-63-63v-46c0-9 7-16 16-16h437c9 0 16 7 16 16v44c0 36-27 65-62 65h-344z m375-65v-29h-406v31c0 19 12 32 31 32h344c17 0 31-15 31-34z" horiz-adv-x="1062.5" />

<glyph glyph-name="flag2" unicode="&#xe81c;" d="M422 819h-344c-8 0-15-7-15-16v-469c0-8 7-15 15-15h344c8 0 47-3 47-47 0-9 7-16 15-16s16 7 16 16v469c-1 27-18 78-78 78z m47-483c-16 10-34 14-47 14h-328v438h328c44 0 47-43 47-47v-405z m354-142h-433c0 0-22 0-35 13-8 8-12 19-12 34 0 8-7 15-16 15s-15-7-15-15c0-24 7-43 21-57 22-20 52-21 57-21 0 0 433 0 433 0 12 0 22 4 29 13 9 12 9 27 6 37-18 58-111 184-137 218 25 39 119 186 137 244 3 9 3 24-6 36-7 9-17 14-29 14h-275c-8 0-15-7-15-16s7-15 15-15h275c3 0 4-1 4-1 1-2 2-7 1-9-19-61-138-243-139-245-4-5-4-13 0-18 2-1 120-157 139-217 0-3 0-7-1-9 0 0-1-1-4-1z m-792-328v968c0 9-7 16-15 16s-16-7-16-16v-968c0-9 7-16 16-16s15 7 15 16z" horiz-adv-x="875" />

<glyph glyph-name="map3" unicode="&#xe81d;" d="M289-148c0 0 0 0 1 0 2-1 4-2 7-2 1 0 3 0 4 1l340 92 339-92c2-1 3-1 4-1 3 0 5 1 8 2 0 0 0 0 1 0l281 172c6 4 9 11 7 18l-156 547c-1 4-5 8-9 10-5 2-10 1-14-1l-155-87c-7-4-10-14-6-21 4-8 14-10 22-6l137 77 147-516-250-153-60 476c-1 8-9 14-17 13-9-1-15-9-14-17l60-477-310 84v86c0 8-7 15-15 15s-16-7-16-15v-86l-310-84 60 477c1 8-5 16-14 17-8 1-16-5-17-13l-60-476-250 153 147 516 138-77c7-4 17-2 21 6 4 7 2 17-6 21l-155 87c-4 2-9 3-14 1-4-2-7-6-9-10l-155-547c-2-7 1-14 7-18l281-172z m341 268c3-3 7-4 11-4 3 0 7 1 10 4 11 9 255 234 255 464 0 149-116 266-265 266s-266-117-266-266c0-226 245-455 255-464z m11 699c133 0 234-101 234-235 0-190-187-385-234-431-47 46-235 244-235 431 0 134 101 235 235 235z m140-235c0 78-63 141-140 141s-141-63-141-141 63-140 141-140 140 63 140 140z m-140-109c-61 0-110 49-110 109s49 110 110 110 109-49 109-110-49-109-109-109z" horiz-adv-x="1281.3" />

<glyph glyph-name="gears2" unicode="&#xe81e;" d="M115 171c6-1 13-8 16-14l10-26c3-5 2-15 0-20l-44-72c-9-15-8-37 5-51l37-37c13-11 36-13 50-4l72 43c4 3 14 4 21 1l26-11c5-2 12-9 13-15l20-81c4-17 21-32 38-33 0 0 11-1 27-1s27 1 27 1c18 1 35 16 39 33l19 81c2 6 8 13 15 15l26 11c5 3 15 2 20-1l71-43c7-4 14-6 22-6 11 0 21 4 29 11l37 37c12 13 14 35 5 50l-44 72c-3 5-3 15 0 20l10 27c2 5 10 12 15 13l82 20c17 4 31 20 33 38 0 0 1 11 1 27s-1 27-1 27c-2 18-16 34-33 39l-82 19c-5 2-13 8-15 15l-11 26c-2 5-2 15 1 20l44 71c9 15 7 37-5 51l-37 37c-13 12-36 14-51 5l-71-44c-5-3-14-4-21-1l-26 11c-6 2-12 10-14 15l-19 82c-4 17-21 31-39 33 0 0-10 1-27 1s-27-1-27-1c-17-2-34-16-38-34l-20-81c-1-5-8-13-14-15l-26-11c-5-2-16-2-20 1l-72 44c-14 9-37 7-51-5l-37-37c-12-14-13-35-4-51l44-71c2-5 3-15 0-21l-11-26c-2-6-9-12-15-14l-81-19c-17-4-31-21-33-39 0 0-1-10-1-27s1-27 1-27c2-17 16-34 33-38l81-20z m-84 85c0 15 1 24 1 25 1 4 5 9 9 10l82 20c16 4 31 18 36 33l11 24c7 15 6 36-3 50l-43 71c-3 4-2 11 0 13l36 36c3 2 10 3 13 1l71-44c14-8 37-8 49-2l25 10c15 5 30 21 34 37l19 81c1 4 7 9 11 9 0 0 10 1 24 1s24-1 25-1c4 0 9-5 10-9l20-81c4-16 18-32 33-37l24-10c15-7 37-6 50 2l71 44c4 2 11 1 13-1l36-35c3-3 3-10 1-14l-44-71c-8-14-9-35-2-49l10-25c5-15 21-29 37-33l81-20c4-1 9-6 9-10 0-1 1-10 1-25s-1-24-1-24c0-4-5-10-9-11l-81-19c-16-4-32-19-37-33l-10-25c-7-14-6-36 2-50l44-71c2-3 2-10-1-13l-35-35c-2-2-5-3-8-3-2 0-4 1-5 1l-72 44c-13 8-37 9-49 3l-24-10c-16-6-30-22-34-37l-20-82c-1-4-6-9-10-9-1 0-10-1-25-1s-24 1-24 1c-4 0-10 5-11 9l-19 82c-4 15-19 31-33 36l-25 11c-6 3-14 4-22 4-10 0-20-2-28-7l-71-44c-3-2-11 0-13 1l-35 36c-3 3-4 10-1 13l43 71c9 14 10 36 3 49l-10 25c-6 15-21 30-37 34l-82 19c-4 1-8 7-9 11 0 0-1 10-1 24z m375-172c95 0 172 78 172 172s-77 172-172 172-172-77-172-172 78-172 172-172z m0 313c78 0 141-63 141-141s-63-140-141-140-140 63-140 140 63 141 140 141z m453 287c-2-2-6-4-8-4l-59 0c-14 0-28-10-32-23 0 0-3-7-6-19s-4-18-4-18c-2-14 6-30 18-37l52-26c2-1 5-6 5-9l3-20c0-2-1-7-3-9l-41-40c-10-10-13-28-6-41l19-31c8-12 25-18 38-14l57 18c3 0 6-1 8-3l16-12c2-1 4-6 4-8l0-58c0-14 10-28 23-33 0 0 7-3 19-5s18-4 18-4c1 0 4-1 5-1 13 0 26 8 32 19l27 51c1 2 5 5 8 5l21 3c3 0 7-1 8-2l40-42c10-10 27-13 41-6l31 19c12 8 18 25 14 39l-17 55c-1 2 0 7 2 10l12 16c1 2 6 4 8 4l58-1c14 0 28 10 33 24 0 0 3 7 5 18s4 19 4 19c3 14-5 30-18 36l-51 27c-2 1-5 5-5 9l-3 19c-1 3 1 8 2 9l42 41c10 10 13 27 6 41l-19 31c-8 12-25 18-38 13l-58-17c-3 0-6 1-7 3l-17 11c-1 2-4 6-4 8l1 58c0 15-10 29-24 34 0 0-7 2-18 5s-19 4-19 4c-1 0-4 0-5 0-12 0-25-7-31-18l-27-52c-1-2-5-4-9-5l-20-3c-3 0-7 2-8 3l-41 41c-9 10-26 14-41 6l-31-19c-12-8-18-24-13-38l17-55c1-2 0-7-2-10l-12-16z m25-18l11 15c8 10 12 26 8 38l-17 55c-1 1 0 3 0 3l30 18 3-1 41-41c7-7 19-12 30-12 2 0 5 0 6 1l18 2c13 1 27 10 33 22l27 51c0 1 2 2 3 2 1 0 7-1 16-3 10-3 16-5 16-5 1 0 2-2 2-3l0-58c0-13 8-28 18-34l14-11c10-8 26-12 39-8l55 18c1 0 3-1 3-1l17-29c1-1 0-3 0-4l-41-41c-10-9-14-24-12-36l3-18c1-13 10-27 21-33l52-26c1-1 2-3 2-4 0-1-2-7-4-16-2-10-4-16-4-16-1-1-3-2-4-2l-58 0c-13 0-27-8-34-18l-10-14c-9-10-12-26-8-38l17-56c0-1-1-3 0-3l-30-17-4 0-40 42c-7 7-19 12-30 12-3 0-5-1-7-1l-18-3c-12-1-26-10-32-21l-27-52c0 0-2-1-4-1v0c0 0-6 1-16 3-9 2-15 4-15 4-1 1-3 3-3 4l1 58c0 13-8 27-18 34l-15 11c-7 5-17 9-27 9-4 0-8-1-11-2l-55-17c-2 0-3 1-3 0l-18 30c0 1 0 3 1 4l41 40c9 9 14 25 12 37l-3 18c-1 12-10 26-22 32l-51 27c-1 1-2 3-2 4 0 0 1 7 3 16 3 9 5 15 5 16 0 0 2 2 3 2l59-1c12 0 27 8 33 18z m147-191c52 0 94 42 94 94s-42 94-94 94-93-43-93-94 42-94 93-94z m0 156c35 0 63-28 63-62s-28-63-63-63-62 28-62 63 28 62 62 62z" horiz-adv-x="1312.5" />

<glyph glyph-name="key2" unicode="&#xe81f;" d="M459 391c4 0 7 1 10 4l354 310-21 23-353-310c-7-6-8-15-2-22 3-3 8-5 12-5z m-141-541c192 0 307 151 307 297 0 42-10 88-25 118l141 71c6 3 9 8 9 14v125h94c0 0 3 0 3 0 21 2 27 8 28 31v125h94c4 0 7 0 8 0 4-1 11-2 17 3 7 6 6 13 6 19 0 3 0 6 0 10v141c0 25-21 46-46 46h-121c-11 0-22-4-30-11l-412-362c-21 4-51 10-73 10-175 0-318-143-318-319s143-318 318-318z m0 606c16 0 43-4 74-11 5-1 10 1 13 4l418 366c3 2 7 4 10 4h121c8 0 15-7 15-15v-141h-110c-8 0-15-7-15-16v-141h-110c-8 0-15-7-15-15v-131l-148-74c-4-2-7-6-8-10s0-10 2-13c14-19 29-66 29-116 0-131-103-266-276-266-158 0-287 129-287 287s129 288 287 288z m-52-450c60 0 109 49 109 110s-49 109-109 109-110-49-110-109 49-110 110-110z m0 188c43 0 78-35 78-78s-35-78-78-78-78 35-78 78 35 78 78 78z" horiz-adv-x="1000" />

<glyph glyph-name="paperclip2" unicode="&#xe820;" d="M175-146c63 0 130 32 178 80l528 536c27 28 42 63 42 101 0 39-14 74-41 101-55 55-146 55-202-1l-405-423c-6-7-6-17 1-24 7-6 17-6 24 1l404 422c43 43 112 44 154 2 21-21 32-48 32-77-1-30-12-57-33-78l-528-537c-55-55-169-105-238-37-32 32-48 72-47 115 2 43 22 85 57 120l603 612c32 32 82 51 137 51 1 0 1 0 1 0 55 0 104-18 136-50 32-32 50-81 49-137 0-55-18-105-51-137l-465-484c-6-7-6-17 0-24 7-6 18-6 24 1l465 484c39 38 61 96 61 160 0 64-22 123-60 161-37 38-95 59-159 59 0 0-1 0-1 0-64 0-123-22-161-61l-603-612c-84-84-88-203-9-282 29-29 67-42 107-42z" horiz-adv-x="1062.5" />

<glyph glyph-name="attachment" unicode="&#xe821;" d="M593 335c5 0 11 0 16 0 38 0 74 15 101 42l232 231c27 27 42 63 42 101 1 38-14 74-41 101-26 27-62 41-99 41-1 0-1 0-2 0-38 0-73-15-100-42l-232-232c-34-34-49-82-40-130 2-9 11-15 20-13 9 2 15 11 13 20-7 36 4 73 31 100l231 231c21 21 49 33 78 33 30 0 56-11 77-32s31-47 31-76c0-30-12-57-33-78l-231-231c-24-24-57-36-90-32-9 1-17-6-18-15-1-9 5-18 14-19z m-120-212c36 36 50 86 39 135-3 9-11 15-21 13-9-3-14-12-12-21 9-37-2-76-29-104l-232-231c-21-21-48-33-77-33-30 0-57 11-77 32-21 20-32 47-32 76 1 30 12 57 33 78l231 232c24 24 57 35 91 31 9 0 18 6 19 15 1 9-6 18-15 19-44 5-87-10-118-42l-232-231c-27-27-42-63-42-101 0-38 14-74 41-101 27-27 62-41 100-41 0 0 0 0 1 0 38 0 74 15 101 42l231 232z m237 450c-6 6-17 6-23 0l-422-422c-7-7-7-17 0-24 3-3 8-5 12-5s8 2 12 5l421 422c7 7 7 17 0 24z" horiz-adv-x="1000" />

<glyph glyph-name="pricetags" unicode="&#xe822;" d="M1266 850h-313c-21 0-49-12-64-27l-41-42c-6-6-6-16 0-22 6-6 16-6 22 0l42 42c8 9 28 18 41 18h313c8 0 15-7 15-16v-314c0-13-8-33-18-42l-440-436c-6-6-16-6-22 0l-83 83c-6 6-16 6-22 0s-6-16 0-22l82-83c10-9 22-14 34-14 12 0 24 4 33 13l440 437c16 15 28 43 28 64v314c0 26-21 47-47 47z m-46-156c0 34-28 62-63 62s-62-28-62-62 28-63 62-63 63 28 63 63z m-94 0c0 17 14 31 31 31s32-14 32-31-14-31-32-31-31 14-31 31z m-612 31c-21 0-49-12-64-27l-437-442c-18-18-17-48 1-66l326-326c9-9 21-14 33-14 13 0 24 5 33 13l440 437c16 15 28 43 28 64v314c0 26-21 47-47 47h-313z m330-47v-314c0-13-10-33-19-42l-440-436c-6-6-17-6-23 0l-326 326c-6 6-6 16 0 22l437 442c9 9 29 18 41 18h313c9 0 17-7 17-16z m-125-47c-35 0-63-28-63-62s28-63 63-63 62 28 62 63-28 62-62 62z m0-93c-17 0-31 14-31 31s14 31 31 31 31-14 31-31-14-31-31-31z" horiz-adv-x="1312.5" />

<glyph glyph-name="lightbulb" unicode="&#xe823;" d="M344 850c-166 0-344-131-344-344 0-104 42-193 122-259 1-2 2-2 3-3 59-65 62-77 62-105 1-11 1-15 0-17l0-6c0-14-1-38 28-47l253-55c2-1 3-1 4-1 7 0 13 5 15 12 2 9-3 17-12 19l-252 55c-4 2-5 2-4 16l0 6c0 0 0 2 0 18-1 40-10 59-72 127-2 2-3 3-5 4-73 62-111 142-111 236 0 193 162 313 313 313 153 0 312-117 312-313 0-124-60-193-110-236-1 0-3-2-4-3-64-69-73-88-73-128 0-1 0-2 0-3l0-1c0-2-1-4-1-4-1 0-3 0-3 0l-131 31c-9 2-17-3-19-11-2-9 3-17 12-19l129-31c2 0 17-5 30 4 6 4 13 12 14 27l0 1c0 1 0 2 0 3 0 1 0 1 0 1l0 2c1 28 4 40 63 105 0 0 0 0 1 0 83 70 124 156 124 262 0 215-175 344-344 344z m125-922c7 0 13 5 15 12 2 9-3 17-12 19l-250 57c-8 2-17-4-18-12-2-9 3-17 11-19l250-57c2 0 3 0 4 0z m-231-2c-9 2-17-3-19-11-2-9 4-17 12-19l203-46c1 0 2 0 4 0 7 0 13 5 15 12 2 9-4 17-12 19l-203 45z" horiz-adv-x="687.5" />

<glyph glyph-name="layers2" unicode="&#xe824;" d="M961 623l-360 204c-49 27-134 27-183 0l-361-204c-27-15-42-37-42-61s15-46 42-62l361-203c25-14 57-22 91-22 35 0 67 8 92 22l360 203c28 16 43 38 43 62s-15 46-43 61z m-16-94l-361-203c-38-22-111-22-150 0l-360 203c-17 10-26 21-26 33 0 11 9 23 26 32l360 204c20 11 47 17 75 17 29 0 56-6 75-17l361-204c16-9 26-21 26-32 0-12-10-23-26-33z m16-120c-8 5-18 2-22-6-5-8-2-18 6-23 16-9 26-21 26-32s-10-23-26-32l-361-204c-40-23-109-23-150 0l-360 204c-17 9-26 21-26 32s9 23 26 32c8 5 11 15 6 23-4 8-15 11-23 6-27-15-42-37-42-61s15-46 42-61l361-204c26-15 59-22 91-22 33 0 66 7 92 22l360 204c28 15 43 37 43 61s-15 46-43 61z m0-209c-8 4-18 2-22-6-5-8-2-19 6-23 16-9 26-21 26-33s-10-23-26-32l-361-204c-40-23-109-23-150 0l-360 204c-17 9-26 21-26 32 0 12 9 24 26 33 8 4 11 15 6 23-4 8-15 11-23 6-27-16-42-37-42-62s15-45 42-61l361-204c26-14 59-21 91-21 33 0 66 7 92 21l360 204c28 16 43 37 43 61s-15 46-43 62z" horiz-adv-x="1000" />

<glyph glyph-name="pencil2" unicode="&#xe825;" d="M0-134c0-8 7-15 16-15h972c2 0 4 0 6 1s4 2 5 3c0 0 0 0 0 0 0 0 0 1 0 1 2 1 3 3 4 6 0 0 0 1 0 2 0 1 1 1 1 2 0 1-1 3-1 4 0 0 0 1 0 1l-99 304c-1 2-2 4-4 6l-535 535c0 1-1 2-1 2l-117 117c-19 19-50 19-69 0l-164-163c-9-9-14-22-14-35s5-25 14-34l115-114c0-1 0-2 1-3l534-538c2-2 4-3 7-4l210-62h-865c-9 0-16-7-16-16z m199 667l490-484-18-63-508 511 36 36z m514-464l-492 486 76 76 488-489v-73h-72z m91 97l-485 487 33 32 506-506-54-13z m-86-128h82c9 0 16 7 16 15v84l63 14 85-261-265 79 19 69z m-687 599c0 5 2 9 5 13l164 163c7 7 18 7 25 0l105-105-188-188-106 105c-3 3-5 8-5 12z" horiz-adv-x="1000" />

<glyph glyph-name="tools" unicode="&#xe826;" d="M7 674c-27-27-21-64 0-85 1-1 85-82 204-201 3-3 7-4 11-4s8 1 11 4c7 6 7 16 0 22-18 18-35 35-51 51l50 50c6 6 6 16 0 22s-16 6-22 0l-50-50c-28 28-52 52-72 71l113 113c6 6 6 16 0 22s-16 6-22 0l-114-113c-23 22-36 35-36 35-7 7-15 25 0 40l156 157c6 6 22 18 40 0 1 0 79-90 200-210 6-7 16-7 22 0s6 16 0 22c-120 119-198 208-199 210-30 29-65 20-85 0l-156-156z m662-579c-6 7-16 7-22 0l-49-49c-16 15-31 31-48 48-6 6-16 6-22 0s-6-16 0-22c115-116 196-202 197-204 11-10 26-16 42-16v0c16 0 33 6 43 16l156 159c20 19 21 53 3 71l-210 209c-6 7-16 7-22 0s-6-16 0-22l210-209c6-6 5-20-3-27l-156-159c-4-3-12-7-21-7 0 0 0 0 0 0-6 0-13 1-19 7 0 0-14 14-36 38l114 114c6 6 6 16 0 22s-16 6-22 0l-114-113c-19 20-43 45-70 73l49 49c6 6 6 16 0 22z m-678-240c3-3 7-4 11-4 2 0 3 0 5 0l312 93c3 1 5 2 7 4l534 538c0 1 1 2 1 3l115 114c9 9 14 21 14 34 0 13-5 26-14 35l-164 163c-18 19-50 19-69 0l-117-117c0 0-1-1-1-2l-535-535c-2-2-3-4-4-6l-99-304c-2-5 0-12 4-16z m647 830l33-32-485-487-54 13 506 506z m-433-543l488 489 76-76-492-486h-72v73z m622 355l-508-511-18 63 490 484 36-36z m-716-346l63-14v-84c0-8 7-15 16-15h82l19-69-265-79 85 261z m654 662c7 7 18 7 25 0l164-163c3-4 5-8 5-13 0-4-2-9-5-12l-106-105-188 188 105 105z" horiz-adv-x="968.8" />

<glyph glyph-name="tools-2" unicode="&#xe827;" d="M886 808c4 3 5 8 4 13s-4 10-8 12c-72 34-157 19-213-37-53-54-71-138-47-208l-360-360c-20 7-41 10-63 10-53 0-105-21-142-58-56-56-71-139-40-211 2-5 6-8 11-9 6-1 11 0 14 4l109 110c8 7 19 8 25 2l47-49c7-7 7-18 0-25l-109-110c-4-3-5-8-4-13s4-10 8-12c26-12 54-18 81-18 49 0 96 19 132 55 53 54 71 138 47 208l360 360c20-7 41-10 63-10 53 0 105 21 142 58 56 56 71 139 40 211-2 5-6 8-11 9-5 1-11 0-14-4l-109-110c-7-6-19-6-25 1l-47 47c-7 7-7 17 0 24l109 110z m-131-157l46-46c19-19 51-19 70-1l91 92c15-54 0-112-41-154-31-31-75-49-120-49-22 0-42 4-60 12-6 3-13 1-18-3l-375-375c-4-5-5-12-3-17 25-60 10-137-36-184-42-41-102-56-156-39l92 93c19 19 20 49 1 68l-47 50c-18 18-51 17-70-2l-91-92c-15 54 0 112 41 154 31 31 75 49 120 49 22 0 42-4 61-12 5-3 12-1 17 3l375 375c4 5 6 12 3 17-25 60-10 137 36 184 42 41 102 56 156 39l-92-93c-20-19-20-49 0-69z m158-759c-7-7-19-7-26 0l-313 313c-7 6-16 6-23 0-6-6-6-16 1-22l313-313c9-9 22-14 35-14 0 0 0 0 0 0 13 0 26 5 35 14l45 47c19 19 19 50 0 69l-313 313c-6 6-16 6-22 0s-6-16 0-22l313-313c7-7 7-18 0-25l-45-47z m-730 860l-94 93c-6 7-16 7-22 0l-62-62c-7-6-7-16 0-22l93-94c3-3 7-4 11-4s8 1 11 4l21 20 239-239c3-3 7-4 11-4s8 1 11 4c6 6 6 16 0 22l-239 239 20 21c6 6 6 16 0 22z m-74-52l-71 72 40 40 72-71-41-41z" horiz-adv-x="1000" />

<glyph glyph-name="scissors3" unicode="&#xe828;" d="M797-56c60 0 109 49 109 109s-49 110-109 110-109-50-109-110 49-109 109-109z m0 187c43 0 78-35 78-78s-35-78-78-78-78 35-78 78 35 78 78 78z m-212-29c0-46 12-103 27-135 30-78 90-117 179-117 115 0 209 94 209 209 0 113-88 194-209 194-138 0-183 74-185 77-1 1-1 2-2 3l-480 512c-4 5-11 6-17 4-6-2-10-8-10-15 0-301 201-459 348-575 78-62 140-110 140-157z m-455 691l450-480c8-13 64-91 211-91 103 0 178-68 178-163 0-98-80-178-178-178-75 0-125 32-151 98-11 25-23 76-23 123 0 62-68 115-153 182-135 106-317 249-334 509z m-36-740c0-60 49-109 109-109s110 49 110 109-50 110-110 110-109-50-109-110z m187 0c0-43-35-78-78-78s-78 35-78 78 35 78 78 78 78-35 78-78z m364 314c-7-6-7-16-1-22 3-4 7-6 11-6 4 0 8 2 11 5 110 100 237 247 237 490 0 7-4 13-10 15-6 2-12 1-17-4l-341-364c-6-6-6-16 1-22 6-6 16-6 22 1l313 334c-14-208-127-337-226-427z m-304-107c8 3 12 12 9 20s-12 12-20 9c-7-3-14-6-22-9-26-12-59-27-99-27-121 0-209-81-209-194 0-115 94-209 209-209 89 0 149 39 179 116 16 34 18 108 18 150 0 8 24 26 38 37 14 10 27 20 36 30 6 7 6 17-1 22-6 6-16 6-22-1-7-8-20-17-31-26-26-20-51-38-51-62 0-65-6-116-16-137-25-66-74-98-150-98-98 0-178 80-178 178 0 95 75 163 178 163 47 0 85 17 112 29 7 3 14 6 20 9z m134 59c0-14 11-25 25-25s25 11 25 25c0 14-11 25-25 25s-25-11-25-25z" horiz-adv-x="1000" />

<glyph glyph-name="paintbrush" unicode="&#xe829;" d="M481 194h144c32 0 59 27 63 59v537c-4 33-31 60-63 60h-562c-33 0-60-27-63-60v-537c3-32 30-59 63-59h155c11 0 65-3 65-48 0-82-17-120-24-135l-1-3 12-6v0l-13 3c-1-1-1-2-2-4-4-12-7-26-7-39 0-67 39-112 96-112 58 0 96 45 96 112 0 12-2 24-6 36 0 4-1 7-3 10-1 2-2 4-4 6-6 13-21 40-21 132 0 19 20 48 75 48z m-450 279h625v-123h-625v123z m32 346h562c15 0 28-13 31-29v-286h-625v286c4 16 16 29 32 29z m337-819c1-2 1-4 3-6 0 0 0-1 0-1 0 0 0-1 0-1 4-10 6-20 6-30 0-39-17-81-65-81-48 0-65 42-65 81 0 10 2 20 6 30 0 0 1 1 1 1 0 1 1 2 1 2l1 3c7 16 27 59 27 148-1 62-61 79-98 79 0 0 0 0 0 0h-154c-16 0-28 13-32 28v66h625v-66c-3-15-16-28-31-28h-144c-78 0-106-47-106-79 0-100 17-131 25-146z" horiz-adv-x="687.5" />

<glyph glyph-name="magnifying-glass" unicode="&#xe82a;" d="M328 850c-181 0-328-147-328-328s147-328 328-328c85 0 163 33 221 86 1-1 1-2 3-4l67-67c-6-9-9-20-9-31 0-17 6-33 18-45l265-265c12-12 28-18 45-18s32 6 44 18 18 28 18 44-6 33-18 45l-265 265c-20 20-52 23-76 9l-67 68c-1 1-3 1-4 2 53 58 86 136 86 221 0 181-147 328-328 328z m366-650l266-265c6-6 9-14 9-23s-3-16-9-22c-12-11-33-11-45 0l-265 266c-6 6-9 13-9 22s3 16 9 22c6 6 14 9 22 9s17-3 22-9z m-366 25c-164 0-297 133-297 297s133 297 297 297 297-133 297-297-133-297-297-297z m0 531c-129 0-234-105-234-234s105-234 234-234 235 105 235 234-106 234-235 234z m0-437c-112 0-203 91-203 203s91 203 203 203 203-91 203-203-91-203-203-203z" horiz-adv-x="1000" />

<glyph glyph-name="circle-compass" unicode="&#xe82b;" d="M360 663c8 0 15 7 15 15v47h16c8 0 15 7 15 16v93c0 9-7 16-15 16h-63c-8 0-15-7-15-16v-93c0-9 7-16 15-16h16v-47c0-8 7-15 16-15z m-16 156h31v-63h-31v63z m-336-963c3-2 5-2 8-2 5 0 11 3 13 8l135 256c60-30 126-47 196-47 69 0 136 16 196 47l133-256c3-5 9-8 14-8 3 0 5 0 7 2 8 4 11 13 7 21l-134 256c31 18 60 40 86 66 31 31 31 80 0 111-29 29-81 29-110 0-15-15-31-28-49-39l-73 141c28 23 47 57 47 96 0 69-56 125-124 125s-124-56-124-125c0-39 18-73 47-96l-74-141c-17 11-33 24-48 39-30 29-81 29-110 0-31-31-31-80 0-111 26-26 54-48 85-66l-134-256c-4-8-1-17 6-21z m98 445c12 0 24-5 33-13 59-59 137-92 221-92s162 33 221 92c18 17 48 17 66 0 18-19 18-48 0-67-76-76-179-119-287-119-109 0-211 43-287 119-19 19-19 48 0 67 8 8 20 13 33 13z m161 207c0 52 42 93 93 93s93-41 93-93-42-92-93-92-93 41-93 92z m42-113c16-7 33-11 51-11 18 0 35 4 50 11l73-139c-38-19-80-29-123-29-44 0-86 10-124 29l73 139z" horiz-adv-x="718.8" />

<glyph glyph-name="linegraph" unicode="&#xe82c;" d="M1219 850c-52 0-94-42-94-94 0-27 12-52 32-69l-275-439c-12 5-25 8-38 8-27 0-52-11-69-30l-283 180c5 11 8 24 8 38 0 51-42 94-94 94s-93-43-93-94c0-28 12-54 32-71l-215-343c-11 5-23 8-36 8-52 0-94-43-94-94s42-94 94-94 94 42 94 94c0 27-13 52-32 69l216 344c10-4 22-7 34-7 27 0 51 12 68 30l284-180c-5-11-8-24-8-37 0-52 42-94 94-94s94 42 94 94c0 27-12 51-30 68l275 439c11-5 23-7 36-7 51 0 94 42 94 93s-43 94-94 94z m-1063-906c0-35-28-63-62-63s-63 28-63 63 28 62 63 62 62-28 62-62z m250 437c-34 0-62 28-62 63s28 62 62 62 63-28 63-62-28-63-63-63z m438-281c-35 0-63 28-63 63s28 62 63 62 62-28 62-62-28-63-62-63z m375 594c-35 0-63 28-63 62s28 63 63 63 62-28 62-63-28-62-62-62z" horiz-adv-x="1312.5" />

<glyph glyph-name="mobile2" unicode="&#xe82d;" d="M47-150h437c9 0 16 7 16 16s-7 15-16 15h-437c-9 0-16 7-16 16v906c0 9 7 16 16 16h656c9 0 16-7 16-16v-156c0-9 7-16 15-16s16 7 16 16v156c0 26-21 47-47 47h-656c-26 0-47-21-47-47v-906c0-26 21-47 47-47z m516 672v-625c0-26 21-47 46-47h344c26 0 47 21 47 47v625c0 26-21 47-47 47h-344c-25 0-46-21-46-47z m406 0v-625c0-9-7-16-16-16h-344c-8 0-15 7-15 16v625c0 9 7 16 15 16h344c9 0 16-7 16-16z m-625-547c0-17 14-31 31-31s31 14 31 31c0 17-14 31-31 31s-31-14-31-31z m406 0c0-17 14-31 31-31s32 14 32 31c0 17-14 31-32 31s-31-14-31-31z" horiz-adv-x="1000" />

<glyph glyph-name="laptop2" unicode="&#xe82e;" d="M109 38c9 0 16 7 16 15v735c0 18 13 31 31 31h1000c18 0 32-15 32-34v-732c0-8 7-15 15-15s16 7 16 15v732c0 36-28 65-63 65h-1000c-36 0-62-26-62-62v-735c0-8 7-15 15-15z m94 718c-8 0-15-7-15-15v-688c0-8 7-15 15-15h906c9 0 16 7 16 15v688c0 8-7 15-16 15h-906z m891-687h-875v656h875v-656z m203-94h-1281c-9 0-16-7-16-16v-36c0-38 44-73 78-73h1156c36 0 79 42 79 78v31c0 9-7 16-16 16z m-16-47c0-18-28-47-47-47h-1156c-20 0-47 24-47 42v21h1250v-16z" horiz-adv-x="1312.5" />

<glyph glyph-name="desktop2" unicode="&#xe82f;" d="M47 69h547v-47c0-9 7-16 15-16s16 7 16 16v47h547c26 0 47 21 47 47v687c0 26-21 47-47 47h-1125c-26 0-47-21-47-47v-687c0-26 21-47 47-47z m-16 734c0 9 7 16 16 16h1125c9 0 16-7 16-16v-687c0-9-7-16-16-16h-1125c-9 0-16 7-16 16v687z m78-640h1000c9 0 16 7 16 15v563c0 8-7 15-16 15h-1000c-8 0-15-7-15-15v-563c0-8 7-15 15-15z m16 562h969v-531h-969v531z m313-750c-36 0-63-27-63-63v-46c0-9 7-16 16-16h437c9 0 16 7 16 16v44c0 36-28 65-63 65h-343z m375-65v-29h-407v31c0 19 13 32 32 32h343c18 0 32-15 32-34z" horiz-adv-x="1218.8" />

<glyph glyph-name="camera2" unicode="&#xe830;" d="M1234 663h-234c-60 0-62 56-62 62v31c0 40-44 94-125 94h-312c-92 0-125-56-125-94v-31c0-2-1-62-63-62h-235c-43 0-78-36-78-79v-562c0-43 35-78 78-78h188c8 0 15 7 15 15s-7 16-15 16h-188c-26 0-47 21-47 47v391h250c-20-49-31-101-31-157 0-224 182-406 406-406s407 182 407 406c0 56-12 108-32 157h250v-391c0-26-21-47-47-47h-218c-9 0-16-7-16-16s7-15 16-15h218c44 0 79 35 79 78v562c0 43-35 79-79 79z m-578-782c-206 0-375 169-375 375s169 375 375 375 375-168 375-375-168-375-375-375z m367 563c-2 0-4-1-6-2-68 131-204 221-361 221s-293-90-360-221c-2 1-5 2-7 2h-258v140c0 26 21 47 47 47h235c74 0 94 61 94 94v31c0 25 25 63 94 63h312c65 0 93-42 93-63v-31c0-32 20-94 94-94h234c26 0 47-21 47-47v-140h-258z m-726 250c9 0 16 7 16 15v32c0 26-21 47-47 47h-125c-26 0-47-21-47-47v-32c0-8 7-15 15-15s16 7 16 15v32c0 8 7 15 16 15h125c8 0 15-7 15-15v-32c0-8 7-15 16-15z m359-156c-155 0-281-127-281-282s126-281 281-281 282 126 282 281-127 282-282 282z m0-532c-138 0-250 112-250 250s112 250 250 250 250-112 250-250-112-250-250-250z" horiz-adv-x="1312.5" />

<glyph glyph-name="printer3" unicode="&#xe831;" d="M1266 538h-78v109c0 26-21 47-47 47h-63c-8 0-15-7-15-16s7-15 15-15h63c8 0 15-7 15-16v-109h-125v296c0 9-7 16-15 16h-719c-9 0-16-7-16-16v-296h-125v109c0 9 7 16 16 16h62c9 0 16 7 16 15s-7 16-16 16h-62c-26 0-47-21-47-47v-109h-78c-26 0-47-21-47-47v-438c0-26 21-47 47-47h187c9 0 16 7 16 16s-7 16-16 16h-187c-9 0-16 7-16 15v110h1250v-110c0-8-7-15-15-15h-188c-8 0-15-7-15-16s7-16 15-16h188c26 0 47 21 47 47v438c0 26-21 47-47 47z m-953 281h687v-281h-687v281z m-282-625v297c0 8 7 15 16 15h1219c8 0 15-7 15-15v-297h-1250z m985-63c-9 0-16-7-16-15v-235h-687v235c0 8-7 15-16 15s-16-7-16-15v-250c0-9 7-16 16-16h719c8 0 15 7 15 16v250c0 8-7 15-15 15z m140 157c0-18 14-32 32-32s31 14 31 32c0 17-14 31-31 31s-32-14-32-31z m-125 0c0-18 14-32 32-32s31 14 31 32c0 17-14 31-31 31s-32-14-32-31z" horiz-adv-x="1312.5" />

<glyph glyph-name="toolbox" unicode="&#xe832;" d="M1297 319c-9 0-16-7-16-16v-406c0-9-7-16-15-16h-1219c-9 0-16 7-16 16v406c0 9-7 16-15 16s-16-7-16-16v-406c0-26 21-47 47-47h1219c26 0 47 21 47 47v406c0 9-7 16-16 16z m-31 312h-1219c-26 0-47-21-47-47v-187c0-9 7-16 16-16h422v-109c0-26 21-47 46-47h344c26 0 47 21 47 47v109h422c9 0 16 7 16 16v187c0 26-21 47-47 47z m-422-359c0-9-7-16-16-16h-344c-8 0-15 7-15 16v109h375v-109z m437 141h-1250v171c0 9 7 16 16 16h1219c8 0 15-7 15-16v-171z m-797 437c-25 0-46-21-46-47v-125c0-8 7-15 15-15s16 7 16 15v125c0 9 7 16 15 16h344c9 0 16-7 16-16v-125c0-8 7-15 15-15s16 7 16 15v125c0 26-21 47-47 47h-344z" horiz-adv-x="1312.5" />

<glyph glyph-name="briefcase2" unicode="&#xe833;" d="M1172 288c-9 0-16-7-16-16v-375c0-9-7-16-15-16h-1094c-9 0-16 7-16 16v375c0 9-7 16-15 16s-16-7-16-16v-375c0-26 21-47 47-47h1094c26 0 47 21 47 47v375c0 9-7 16-16 16z m-375 406c9 0 16 7 16 15v94c0 26-21 47-47 47h-344c-26 0-47-21-47-47v-94c0-8 7-15 16-15s15 7 15 15v94c0 9 7 16 16 16h344c8 0 15-7 15-16v-94c0-8 7-15 16-15z m344-63h-1094c-26 0-47-21-47-47v-155c0-86 296-203 598-203 298 0 590 117 590 203v155c0 26-21 47-47 47z m15-202c0-55-264-171-558-171-299 0-567 116-567 171v155c0 9 7 16 16 16h1094c8 0 15-7 15-16v-155z m-558-298c29 0 60 2 91 4 8 1 15 8 14 17-1 8-8 15-17 14-63-5-122-5-185 1-8 1-16-6-17-15s6-16 15-16c33-3 67-5 99-5z" horiz-adv-x="1187.5" />

<glyph glyph-name="wallet" unicode="&#xe834;" d="M1016 616c9 0 16 7 16 15v52c0 29-23 52-52 52h-84l-19 56c-2 8-11 12-19 10l-455-138c-8-3-13-12-10-20 2-7 8-11 15-11 1 0 3 0 4 1l441 134 42-124c2-8 11-13 19-10 9 3 13 12 10 20l-17 50h73c11 0 20-9 20-20v-52c0-8 7-15 16-15z m125-235c-9 0-16-7-16-15s7-16 16-16c11 0 15-5 15-16v-187c0-11-4-16-15-16h-250c-11 0-16 5-16 16v156c0 11 5 16 16 16h187c9 0 16 7 16 15v188c0 28-19 47-47 47h-953c-39 0-63 24-63 62s24 63 63 63h158l-94-31c-8-3-13-12-10-20 2-7 8-11 15-11 1 0 3 0 5 1l566 187c8 2 13 11 10 19-3 9-12 13-20 10l-378-124c-1 0-1 0-2 0h-250c-56 0-94-38-94-94v-687c0-56 38-94 94-94h953c28 0 47 18 47 47v156c0 9-7 16-16 16s-15-7-15-16v-156c0-11-5-16-16-16h-953c-39 0-63 24-63 63v615c16-13 38-21 63-21h953c11 0 16-5 16-16v-172h-172c-29 0-47-18-47-47v-156c0-29 18-47 47-47h250c28 0 47 18 47 47v187c0 29-19 47-47 47z m-172-156c0-17 14-31 31-31s31 14 31 31c0 17-14 31-31 31s-31-14-31-31z" horiz-adv-x="1187.5" />

<glyph glyph-name="puzzle" unicode="&#xe835;" d="M626 728c0 61-48 122-157 122-96 0-160-49-160-122 0-43 17-62 28-75 6-7 9-10 9-13 0-5 0-8-18-9h-190c-74 0-138-58-138-125v-116c1-30 18-48 44-48 14 0 25 8 35 16 15 11 30 23 62 23 53 0 109-44 109-125 0-82-57-139-108-139-31 0-47 13-62 25-11 9-22 18-36 18-26 0-43-18-44-48v-129c0-69 66-133 138-133h191c29 1 48 18 48 44 0 15-9 25-16 33-11 12-21 24-21 54 0 56 50 91 127 91 78 0 128-35 128-91 0-30-10-42-21-54-7-8-16-18-16-33 0-26 18-43 48-44l123 0c68 0 115 52 115 127v146c1 4 10 18 25 18 3 0 6-2 13-8 12-12 32-29 74-29 69 0 138 52 138 152 0 108-63 157-125 157-42 0-66-20-83-32-7-6-13-11-17-11-15 0-24 14-25 18 0 0 0 0 0 0v112c0 76-48 131-115 131h-122c0 0-1 0-1 0-17 1-17 4-17 9 0 3 3 6 9 13 11 13 28 32 28 75z m-52-54c-7-9-16-19-16-34 0-17 8-38 46-40 1 0 1 0 2 0h123c55 0 84-50 84-100v-113c0-1-1-2 0-4 2-19 26-44 56-44 15 0 25 8 37 17 15 12 32 25 63 25 57 0 94-49 94-125 0-83-55-121-107-121-30 0-42 11-54 21-8 8-18 16-33 16-30 0-54-25-56-45-1-1 0-2 0-3v-147c0-47-26-96-84-96h-122c-18 1-18 9-18 13 0 3 3 6 9 12 11 13 28 33 28 75 0 61-49 123-159 123-95 0-158-49-158-123 0-42 17-62 28-75 6-6 9-9 9-12 0-4 0-12-17-13h-191c-54 0-107 51-107 102v128c1 18 9 18 13 18 3 0 10-5 16-11 16-13 39-32 82-32 67 0 139 68 139 170 0 102-72 157-140 157-42 0-65-18-81-30-7-5-13-10-16-10-4 0-12 0-13 17v116c0 56 56 94 107 94h191c0 0 1 0 1 0v0c39 2 47 23 47 40 0 15-9 25-16 34-11 11-21 23-21 54 0 54 52 91 129 91 77 0 126-36 126-91 0-31-10-43-21-54z" horiz-adv-x="1093.8" />

<glyph glyph-name="basket" unicode="&#xe836;" d="M1234 413h-1156c-5 0-9-3-12-6s-4-9-3-14l125-500c3-11 12-43 46-43h844c34 0 43 32 47 43l125 500c1 5 0 10-3 14-3 3-8 6-13 6z m-140-512c-5-20-11-20-16-20h-844c-4 0-10 0-16 20l-120 480h1116l-120-480z m-516 74c9 0 16 7 16 16v281c0 9-7 16-16 16s-15-7-15-16v-281c0-9 7-16 15-16z m-219 0c1 0 2 0 2 0 9 1 15 9 14 17l-31 282c-1 8-9 14-18 13-8-1-14-8-13-17l31-281c1-8 8-14 15-14z m407 0c8 0 15 7 15 16v281c0 9-7 16-15 16s-16-7-16-16v-281c0-9 7-16 16-16z m185 0c1 0 2 0 2 0 8 0 15 6 16 14l31 281c1 9-5 16-14 17-9 1-16-5-17-13l-31-282c-1-8 5-16 13-17z m127 500c4 0 7 1 10 4 7 6 8 15 2 22l-297 344c-6 6-15 7-22 1-6-5-7-15-2-22l297-344c3-3 8-5 12-5z m-521 372c-7 5-17 4-22-3l-281-343c-6-7-5-17 2-22 3-3 6-4 10-4 4 0 9 2 12 6l281 344c5 6 4 16-2 22z m740-309h-125c-9 0-16-7-16-16s7-16 16-16h125c9 0 16 7 16 16s-7 16-16 16z m-875-32h500c9 0 16 7 16 16s-7 16-16 16h-500c-9 0-16-7-16-16s7-16 16-16z m-406 0h156c9 0 16 7 16 16s-7 16-16 16h-156c-9 0-16-7-16-16s7-16 16-16z" horiz-adv-x="1312.5" />

<glyph glyph-name="envelope2" unicode="&#xe837;" d="M627 837c-18 17-48 17-66 0l-553-333c-5-3-8-8-8-14v-591c0-27 22-49 50-49h1088c27 0 49 22 49 49v591c0 6-3 11-7 14l-553 333z m-49-26c1 1 2 2 3 3 4 3 8 5 13 5s9-2 12-5c1-1 2-2 3-3l539-325-390-232c-8-4-10-14-6-21 3-5 8-8 14-8 2 0 5 1 8 2l382 228v-555l-529 352c-17 14-50 14-65 1l-531-353v555l383-228c2-1 5-2 8-2 5 0 10 3 13 8 5 7 2 17-5 21l-390 232 538 325z m550-930h-1069l521 347c5 4 22 4 29-1l519-346z m-925 563h781c9 0 16 7 16 15s-7 16-16 16h-781c-8 0-15-7-15-16s7-15 15-15z" horiz-adv-x="1187.5" />

<glyph glyph-name="streetsign" unicode="&#xe838;" d="M469-134v297c0 8-4 31-13 31s-18-7-18-16v-312c0-9 9-16 18-16s13 7 13 16z m3 935v33c0 9-7 16-16 16s-16-7-16-16v-33c0-8 7-15 16-15s16 7 16 15z m-350-59l-112-88c-6-6-10-14-10-23s4-17 11-23l110-86c9-9 26-16 39-16h433c17 0 32 15 32 33v185c0 18-15 32-32 32h-433c-13 0-30-6-38-14z m472-203c0-1-1-1-1-1h-433c-5 0-14 3-19 8l-111 84 112 88c4 3 13 7 18 7l434-1v-185z m192-79c-10 8-27 15-40 15h-432c-18 0-33-14-33-32v-186c0-17 15-32 33-32h432c13 0 30 7 39 15l111 87c7 6 10 14 10 23s-3 17-11 24l-109 86z m-473-16h433c5 0 15-4 19-8l111-85-111-87c-4-4-14-8-19-8h-433v188z" horiz-adv-x="906.3" />

<glyph glyph-name="telescope" unicode="&#xe839;" d="M858 778c-1 4-5 7-9 9-4 1-9 1-13-1l-372-197c-7-3-10-12-7-19l8-20-215-118c-7-4-10-12-7-19l7-18-228-109c-7-3-11-12-8-20l47-113c3-6 9-9 15-9 1 0 3 0 5 1l238 84 7-17c3-6 9-10 15-10 1 0 3 1 4 1l227 65 7-17c3-6 8-10 15-10 1 0 3 0 4 0l407 125c4 2 7 5 9 9s2 8 1 12l-157 391z m-774-599l-35 86 213 101 45-108-223-79z m266 58l-8 18c0 0 0 0 0 0l-57 139c0 0 0 0 0 0l-8 18 198 108 74-192 12-30-211-61z m253 39l-6 16c0 0 0 1 0 1l-20 50-86 225 345 182 143-359-376-115z m302 564c-3 8-12 12-20 9-8-3-12-12-9-20l188-469c2-6 8-10 14-10 2 0 4 0 6 1 8 3 12 12 9 20l-188 469z m-342-646h-94c-36 0-63-27-63-63v-41l-183-214c-6-7-5-17 1-22 3-3 7-4 10-4 5 0 9 2 12 5l183 214h71v-203c0-9 7-16 16-16s15 7 15 16v203h71l183-214c3-3 8-5 12-5 4 0 7 1 10 4 7 5 7 15 2 22l-184 214v39c0 36-27 65-62 65z m31-94h-156v31c0 19 12 32 31 32h94c17 0 31-15 31-34v-29z" horiz-adv-x="1093.8" />

<glyph glyph-name="mic" unicode="&#xe83a;" d="M219 100v-125h-93c-36 0-62-27-62-63v-46c0-9 7-16 15-16h313c8 0 15 7 15 16v44c0 36-27 65-62 65h-95v125c124 9 221 111 221 236v59c0 9-8 17-17 17s-16-8-16-17v-59c0-112-91-204-203-204s-202 92-202 204v59c0 9-7 17-16 17s-17-8-17-17v-59c0-125 97-227 219-236z m157-190v-29h-281v31c0 19 13 32 31 32h219c18 0 31-15 31-34z m-141 941c-78 0-141-64-141-143v-372c0-79 63-143 141-143s142 64 140 143v372c2 79-61 143-140 143z m109-515c0-60-49-110-109-110s-110 49-110 110v372c0 60 51 110 110 110s109-50 109-110v-372z" horiz-adv-x="468.8" />

<glyph glyph-name="strategy" unicode="&#xe83b;" d="M688-134c0 8-7 15-16 15h-563c-8 0-15-7-15-15s7-16 15-16h563c9 0 16 7 16 16z m-648 692c-13-9-33-35-14-73 15-31 48-69 82-79 18-5 35-3 51 6 34 20 75 48 92 60 21-11 49-13 77-6 0 0 0 0 0 0-2-51-19-84-105-163-76-71-121-163-120-248 0-56 20-104 58-138 3-3 7-5 11-5h437c9 0 16 7 16 16s-7 16-16 16h-431c-29 28-44 66-44 111 0 75 42 161 111 225 91 85 114 125 114 195 0 1 0 2 0 4 17 9 32 21 42 36 12 18 40 66 19 107-3 8-13 11-21 8-7-4-11-13-7-21 9-19 3-48-17-77-12-16-32-30-55-36-23-6-46-3-61 8-6 3-13 3-18-1-1 0-55-39-98-64-8-5-16-6-26-3-24 7-51 38-63 63-11 21 0 30 5 34 108 93 162 190 164 194 2 3 2 8 1 12 0 1-11 33-17 64 33-20 89-48 147-48 82 0 271-30 271-311 0-2 0-155-62-323-2-8 2-17 10-20 2-1 3-1 5-1 7 0 13 4 15 10 63 174 63 327 63 334 0 318-231 343-302 343-78 0-156 59-157 60-5 3-11 4-16 1-6-2-9-8-9-14 0-30 14-80 20-98-13-22-64-102-152-178z m506 244c-50 34-106 48-187 48-8 0-15-7-15-16s7-15 15-15c75 0 126-13 170-43 72-49 159-146 159-332 0-46 0-108-31-231-2-8 3-17 11-19 1 0 3 0 4 0 7 0 13 5 15 12 32 126 32 191 32 238 0 200-94 305-173 358z" horiz-adv-x="718.8" />

<glyph glyph-name="beaker" unicode="&#xe83c;" d="M547 819c9 0 16 7 16 15s-7 16-16 16h-281c-9 0-16-7-16-16s7-15 16-15h281z m-516-833c-34-47-30-78-21-95 10-19 35-41 99-41h625c65 0 90 22 100 41 9 17 12 48-21 95l-194 311-3 3c-14 20-85 143-85 245v227c0 9-7 16-15 16h-219c-9 0-16-7-16-16v-227c0-109-77-248-78-250l-172-309z m775-81c-8-15-34-24-72-24h-625c-37 0-63 9-71 24-7 14-1 36 19 65l157 279 0 0c28-16 58-33 116-33s88 17 116 33c26 15 51 29 101 29 19 0 35-2 50-6l190-304c19-27 26-49 19-63z m-493 640v211h187v-211c0-88 47-188 75-237-9 1-18 2-28 2-59 0-88-17-116-34-26-15-51-29-101-29s-75 14-101 29l0 1 1 2c1 1 83 147 83 266z" horiz-adv-x="843.8" />

<glyph glyph-name="caution" unicode="&#xe83d;" d="M681 758c-34 59-81 92-132 92s-98-33-132-92l-384-661c-35-61-39-124-10-173 27-47 80-74 146-74h760c0 0 0 0 0 0 66 0 119 27 146 74 28 49 25 112-10 172l-384 662z m367-819c-21-37-65-58-119-58h-760c-54 0-98 22-119 59-23 39-19 91 10 142l384 660c28 50 66 77 105 77s77-27 105-77l384-661c29-51 33-103 10-142z m-499 286c9 0 16 7 16 16v312c0 9-7 16-16 16s-16-7-16-16v-312c0-9 7-16 16-16z m-2-78c-35 0-63-28-63-63s28-62 63-62 62 28 62 62-28 63-62 63z m0-94c-17 0-31 14-31 31s14 32 31 32 31-14 31-32-14-31-31-31z" horiz-adv-x="1093.8" />

<glyph glyph-name="recycle2" unicode="&#xe83e;" d="M380 767l-96-143c-5-7-3-16 4-21s17-3 22 4l96 143c26 44 59 69 94 69s68-25 94-69l172-300-122 25c-9 2-17-4-19-13-1-8 4-16 13-18l156-31c1 0 2 0 3 0 2 0 5 0 7 1 0 1 0 0 1 1 0 0 0 0 1 0 1 1 1 2 2 3 1 0 1 1 2 1 0 1 1 2 1 3 1 1 1 2 1 3 0 0 0 0 0 0l31 156c2 9-3 17-12 19-8 2-16-4-18-13l-23-115-169 294c-32 54-74 84-121 84s-89-30-120-83z m-67-808c0 8-7 15-16 15h-141c-48 0-87 19-106 52-20 36-17 82 10 127l172 302 50-126c3-6 9-10 15-10 2 0 4 0 6 1 8 3 12 12 8 20l-62 156c0 1-1 2-1 3-1 0-1 1-2 2-1 1-2 2-3 3 0 0-1 0-1 0 0 0 0 0 0 0-2 1-4 2-6 2 0 0 0 0-1 0-1 0-2 0-4 0l-156-31c-8-2-14-10-12-19s10-14 18-12l123 25-171-300c-32-56-36-113-10-158 25-43 73-68 133-68h141c9 0 16 7 16 16z m664 52c26 45 22 102-9 156l-63 142c-4 8-13 12-21 8-8-3-11-12-8-20l64-144c27-46 30-92 10-126-19-33-58-52-106-52l-322-1 67 68c6 6 6 16 0 22s-16 6-22 0l-94-94c-3-3-4-7-4-11 0 0 0 0 0 0 0-5 2-10 6-13l92-91c3-4 7-5 11-5s8 1 11 5c6 6 6 16 0 22l-66 66 321 1c60 0 108 24 133 67z" horiz-adv-x="1000" />

<glyph glyph-name="anchor2" unicode="&#xe83f;" d="M25 260l69 68v-25c0-237 216-453 453-453s453 216 453 453v24l69-69c3-3 7-4 11-4s8 1 11 4c6 6 6 16 0 22l-94 95c-3 4-7 6-13 6-1 0-2 0-4 0-2-1-5-2-7-4l-95-95c-6-6-6-16 0-22s16-7 22 0l69 69v-26c0-215-192-412-406-421v593h265c9 0 16 7 16 16s-7 15-16 15h-265v127c52 8 93 53 93 108 0 60-49 109-109 109s-109-49-109-109c0-55 40-100 93-108v-127h-265c-9 0-16-7-16-15s7-16 16-16h265v-593c-214 9-406 206-406 421v25l70-70c3-3 7-4 11-4s8 1 11 4c6 6 6 16 0 22l-96 97c-3 3-7 4-12 4s-8-1-11-4l-95-95c-6-6-6-16 0-22s16-7 22 0z m522 559c43 0 78-35 78-78s-35-78-78-78-78 35-78 78 35 78 78 78z" horiz-adv-x="1093.8" />

<glyph glyph-name="profile-male" unicode="&#xe840;" d="M16-150c8-2 17 3 19 12 32 120 163 151 241 169 20 5 35 9 45 13 89 39 118 101 127 146 1 6-1 11-5 15-47 40-86 100-110 169-1 2-2 4-4 6-32 35-51 73-51 103 0 17 7 29 21 38 5 2 8 7 8 12 7 160 120 285 259 286 0 0 3 0 4 0 139-2 252-130 256-292 0-4 2-8 6-11 9-9 14-19 14-33 0-25-13-56-38-87-1-1-2-3-2-5-25-79-70-149-123-192-5-4-7-9-6-15 9-45 38-108 127-146 11-5 27-8 48-13 77-17 207-45 238-163 2-7 8-12 15-12 2 0 3 0 4 1 9 2 14 10 11 19-36 137-183 169-262 186-18 4-34 7-42 10-58 26-93 64-106 115 54 46 99 118 125 198 27 36 42 72 42 104 0 21-6 38-20 52-7 175-132 313-287 315l-5 0c-152-1-278-135-289-307-19-15-29-35-29-60 0-37 21-82 57-122 26-70 65-131 111-173-12-51-48-90-106-115-8-3-23-7-40-11-80-19-227-54-264-192-3-9 2-17 11-20z" horiz-adv-x="1125" />

<glyph glyph-name="profile-female" unicode="&#xe841;" d="M694 202c-4 1-9-1-13-4-3-4-5-9-4-14 9-45 38-108 127-146 11-5 27-8 48-13 77-17 206-45 238-163 2-7 8-12 15-12 2 0 3 0 4 0 9 3 14 11 12 20-37 137-184 169-263 186-18 4-34 7-42 10-53 24-88 58-103 103 149-11 216 48 219 51 4 3 6 8 5 13s-3 10-7 12c-86 49-86 219-86 283 0 178-120 320-275 322 0 0-3 0-4 0 0 0 0 0 0 0-156-1-284-143-284-316 0-64 0-233-86-282-4-3-7-8-7-13-1-5 1-10 6-13 4-4 99-77 216-54-15-43-49-77-101-99-8-3-23-7-40-11-80-19-227-54-264-192-3-9 2-17 11-19 8-3 17 2 19 11 32 120 163 151 241 170 20 4 35 8 45 12 89 39 118 101 127 146 1 6-1 11-5 15-4 4-10 5-15 3-85-26-163 10-197 31 82 68 82 225 82 295 0 156 113 284 253 285 0 0 3 0 4 0 138-2 243-127 243-291 0-70 0-228 81-296-28-16-92-43-200-30z" horiz-adv-x="1125" />

<glyph glyph-name="bike" unicode="&#xe842;" d="M1422 506c-60 0-116-16-165-45l-212 327h299c0-16-4-42-21-63-19-21-48-31-89-31-8 0-15-7-15-16s7-15 15-15c50 0 88 14 112 42 37 42 29 98 29 100-1 8-8 14-16 14h-343c-6 0-11-3-14-8-3-5-3-12 1-16l88-136h-496l-96 160h173c9 0 16 7 16 15s-7 16-16 16h-281c-9 0-16-7-16-16s7-15 16-15h72c0-1 0-2 1-2l106-177-95-169c-44 22-94 35-147 35-181 0-328-147-328-328s147-328 328-328c175 0 318 137 326 313h346c1-19-3-43-20-63-19-21-49-31-89-31-9 0-16-7-16-16s7-15 16-15c50 0 88 14 113 42 35 41 29 95 28 97-1 8-7 14-15 14h-123l220 432 117-179c-83-59-137-156-137-266 0-181 147-328 328-328s328 147 328 328-147 328-328 328z m-341 125l-214-424-253 424h467z m-492-22l252-418h-185c-5 111-65 209-154 265l87 153z m35-418h-272l135 238c79-51 133-138 137-238z m-296-310c-164 0-297 133-297 297s133 297 297 297c47 0 92-11 132-31l-148-261c-3-5-3-11 0-16 2-5 8-7 13-4h299c-10-158-138-282-296-282z m1094 0c-164 0-297 133-297 297 0 99 49 186 123 240l164-251c3-5 8-8 13-8 3 0 6 1 9 3 7 5 9 14 4 22l-164 251c44 25 94 40 148 40 164 0 297-133 297-297s-133-297-297-297z" horiz-adv-x="1750" />

<glyph glyph-name="wine" unicode="&#xe843;" d="M713 611c0 70-22 173-63 232-3 5-8 7-13 7h-562c-5 0-10-2-12-7-41-59-63-162-63-232 0-186 148-392 344-403v-264h-128c-36 2-63-25-63-60v-18c0-9 7-16 16-16h375c8 0 15 7 15 16v15c0 37-27 65-62 63h-122v264c196 11 338 217 338 403z m-185-730h-344v3c0 18 13 31 32 31h281c18 0 31-15 31-34z m-444 938h545c33-53 51-140 52-201-26 6-54 10-86 10-99 0-149-29-198-57-46-27-90-52-181-52s-134 25-181 52l-1 1c-2 13-3 26-3 39 0 61 19 153 53 208z m-43-287c42-24 91-45 175-45 99 0 149 29 197 57 47 27 91 52 182 52 32 0 60-3 85-10-12-166-149-347-324-347-155 0-281 144-315 293z" horiz-adv-x="718.8" />

<glyph glyph-name="hotairballoon" unicode="&#xe844;" d="M875 556c0 198-143 294-437 294s-438-96-438-294c0-227 412-489 429-500 0 0 0 0 0 0 1-1 1-1 1-1 3-1 5-2 8-2s4 1 7 2c0 0 0 0 1 1 0 0 0 0 0 0 17 11 429 273 429 500z m-312 0c0-173-90-379-125-452-36 73-125 278-125 452 0 236 71 263 125 263s125-27 125-263z m-282 0c0-150 62-317 104-413-85 90-229 264-229 413 0 147 60 229 187 254-41-45-62-129-62-254z m313 0c0 125-21 209-62 254 127-25 187-107 187-254 0-149-144-323-229-413 42 96 104 263 104 413z m-563 0c0 124 62 202 193 239-66-48-99-127-99-239 0-131 98-274 182-374-120 96-276 245-276 374z m537-374c84 100 182 243 182 374 0 112-33 191-99 239 131-37 193-115 193-239 0-129-156-278-276-374z m-209-176c-8 0-15-7-15-15v-94c0-26 20-47 47-47h93c27 0 47 21 47 47v94c0 8-7 15-15 15h-157z m141-109c0-9-6-16-16-16h-93c-10 0-16 7-16 16v78h125v-78z" horiz-adv-x="875" />

<glyph glyph-name="globe2" unicode="&#xe845;" d="M424 163c180 0 328 147 328 328s-148 328-328 328-329-147-329-328 148-328 329-328z m0 625c163 0 296-134 296-297s-133-297-296-297-297 133-297 297 133 297 297 297z m-141-813c-36 0-63-27-63-63v-46c0-9 7-16 16-16h375c9 0 16 7 16 16v44c0 36-28 65-63 65h-281z m312-65v-29h-343v31c0 19 13 32 31 32h281c18 0 31-15 31-34z m-187 159c0 0 0 0 0 0v-50c0-9 7-16 16-16s15 7 15 16v50c0 0 0 0 0 1 101 4 196 43 270 112l37-37c6-6 16-6 22 0s6 16 0 22l-48 47c-6 7-16 7-22 0-74-73-172-114-276-114s-203 41-276 114-115 172-115 277 41 202 115 276c6 6 6 16 0 22l-48 48c-6 6-16 6-22 0s-6-16 0-22l37-37c-73-79-113-180-113-287 0-113 44-219 124-299 76-76 177-119 284-123z" horiz-adv-x="781.3" />

<glyph glyph-name="genius" unicode="&#xe846;" d="M18 100c24-42 79-65 159-65 0 0 0 0 0 0 36 0 75 5 116 14 40-122 103-199 176-199s136 77 175 199c41-9 81-14 117-14 0 0 0 0 0 0 79 0 134 23 159 65 32 55 3 148-93 250 96 103 125 195 93 250-25 43-80 65-159 65-36 0-76-5-117-14-39 122-103 199-175 199s-136-77-176-199c-41 9-80 14-116 14-80 0-135-22-159-65-32-55-4-147 92-250-96-102-124-195-92-250z m451-219c-58 0-110 69-145 175 47 12 96 28 145 50 49-22 97-38 144-50-34-106-87-175-144-175z m-188 469c0 36 2 72 6 106 27 20 57 38 88 56 31 18 62 34 94 48 31-14 63-30 94-48 31-18 60-36 88-56 3-34 5-70 5-106s-2-72-5-106c-28-19-57-38-88-56-31-18-63-34-94-48-32 14-63 30-94 48-31 18-61 37-88 56-4 34-6 70-6 106z m-28-82c-36 27-68 55-96 82 28 27 60 55 96 82-2-27-3-54-3-82s1-55 3-82z m38 229c6 42 14 82 24 118 38-10 76-23 115-38-24-12-47-24-71-38-24-13-46-28-68-42z m216 80c39 15 78 28 115 38 10-36 18-76 24-118-21 14-44 29-68 42-23 14-47 26-71 38z m177-145c36-27 69-54 97-82-28-27-61-55-97-82 2 27 4 54 4 82s-2 55-4 82z m-38-229c-5-42-14-82-24-118-37 10-76 23-115 39 24 11 48 23 71 37 24 14 47 28 68 42z m-287-42c24-14 47-26 71-37-39-16-77-29-115-39-10 36-18 76-24 118 22-14 44-28 68-42z m534-45c-19-32-66-50-132-50-33 0-70 5-108 13 13 44 22 94 28 147 48 34 89 68 123 101 79-84 116-164 89-211z m-132 518c66 0 113-18 132-50 27-47-10-127-89-211-34 34-75 67-123 101-6 53-15 103-28 147 38 8 75 13 108 13z m-292 185c57 0 110-69 144-175-47-11-95-28-144-50-49 22-98 39-145 50 35 106 87 175 145 175z m-424-235c18 32 65 50 132 50 33 0 69-5 107-13-12-44-21-94-27-147-48-34-89-67-123-101-79 84-117 164-89 211z m89-257c34-33 75-67 123-101 6-53 15-103 27-147-38-8-74-13-107-13 0 0 0 0 0 0-67 0-114 18-132 50-28 47 10 127 89 211z m335-55c43 0 78 35 78 78s-35 78-78 78-78-35-78-78 35-78 78-78z m0 125c26 0 47-21 47-47s-21-47-47-47-47 21-47 47 21 47 47 47z" horiz-adv-x="937.5" />

<glyph glyph-name="map-pin" unicode="&#xe847;" d="M375 850c-207 0-375-169-375-376 0-310 350-608 365-620 3-3 6-4 10-4 4 0 7 1 10 4 15 12 365 305 365 620 0 207-168 376-375 376z m0-964c-57 52-344 321-344 588 0 190 155 345 344 345s344-155 344-345c0-272-286-537-344-588z m0 777c-103 0-187-85-187-188s84-187 187-187 188 84 188 187-85 188-188 188z m0-344c-86 0-156 70-156 156s70 156 156 156 156-70 156-156-70-156-156-156z" horiz-adv-x="750" />

<glyph glyph-name="dial" unicode="&#xe848;" d="M500 506c-85 0-155-69-156-154-1-87 68-157 154-158 0 0 2 0 2 0 85 0 155 69 156 154 1 87-68 157-156 158z m0-281v-16l-1 16c-69 1-125 57-124 126 1 69 57 124 126 124 69-1 125-57 124-126-1-68-57-124-125-124z m-500 125c0-17 14-31 31-31s32 14 32 31c0 17-14 31-32 31s-31-14-31-31z m938 0c0-17 14-31 31-31s31 14 31 31c0 17-14 31-31 31s-31-14-31-31z m-469 469c0-17 14-31 31-31s31 14 31 31c0 17-14 31-31 31s-31-14-31-31z m0-938c0-17 14-31 31-31s31 14 31 31c0 17-14 31-31 31s-31-14-31-31z m-344 813c0-17 14-31 31-31s32 14 32 31c0 17-14 31-32 31s-31-14-31-31z m688-688c0-17 14-31 31-31s31 14 31 31c0 18-14 32-31 32s-31-14-31-32z m0 688c0-17 14-31 31-31s31 14 31 31c0 17-14 31-31 31s-31-14-31-31z m-688-688c0-17 14-31 31-31s32 14 32 31c0 18-14 32-32 32s-31-14-31-32z m625 342v236c0 9-7 16-16 16h-234c-136 0-249-111-250-247-1-67 25-130 71-178s110-74 177-75c0 0 2 0 2 0 0 0 0 0 0 0 137 0 249 111 250 248z m-250-217v-15l-2 15c-59 1-113 24-154 66s-63 97-63 155c2 120 100 217 221 217v0h217v-221c-1-120-100-217-219-217z" horiz-adv-x="1000" />

<glyph glyph-name="chat" unicode="&#xe849;" d="M1114 412c-8 2-17-2-19-10-3-9 1-17 10-20 122-39 176-97 176-188 0-81-74-144-118-175-4-3-7-8-7-13v-119c-23 8-62 28-97 67-4 4-10 6-15 5-9-2-18-4-27-7-16-4-33-8-48-8-80 0-137 17-194 59-7 5-17 4-22-3-5-7-4-17 3-22 64-47 125-66 213-66 20 0 38 5 56 10 5 2 11 3 16 5 59-62 125-76 128-77 1 0 2 0 3 0 3 0 7 1 10 3 3 3 6 8 6 13v132c80 58 125 127 125 196 0 105-63 175-199 218z m-83 16c0 241-219 422-510 422-292 0-521-185-521-422 0-142 100-243 188-305v-207c0-6 2-11 7-13 2-2 5-3 8-3 2 0 5 1 7 1 4 2 111 51 202 151 40-8 84-15 125-15 296 0 494 157 494 391z m-494-359c-41 0-88 7-128 15-5 1-11-1-14-5-64-72-140-118-176-138v190c0 5-3 10-7 13-82 57-181 152-181 284 0 219 215 391 490 391 273 0 479-168 479-391 0-215-186-359-463-359z m-21 422c-35 0-63-28-63-63s28-62 63-62 62 28 62 62-28 63-62 63z m0-94c-18 0-32 14-32 31s14 31 32 31 31-14 31-31-14-31-31-31z m218 94c-34 0-62-28-62-63s28-62 62-62 63 28 63 62-28 63-63 63z m0-94c-17 0-31 14-31 31s14 31 31 31 32-14 32-31-14-31-32-31z m-437 91c-35 0-63-28-63-63s28-62 63-62 62 28 62 62-28 63-62 63z m0-94c-17 0-31 14-31 31s14 31 31 31 31-14 31-31-14-31-31-31z" horiz-adv-x="1312.5" />

<glyph glyph-name="heart2" unicode="&#xe84a;" d="M844 850c-78 0-152-29-210-81-22-20-40-42-56-67-15 25-34 47-56 67-58 52-132 81-209 81-173 0-313-140-313-312 0-117 36-209 121-307 123-144 435-364 448-373 3-2 6-3 9-3s6 1 9 3c13 9 325 229 448 373 85 98 121 190 121 307 0 172-140 312-312 312z m168-599c-110-128-381-323-434-361-53 38-324 233-433 361-80 93-114 178-114 287 0 155 126 281 282 281 69 0 136-26 188-73 26-24 47-52 63-83 5-11 23-11 28 0 16 31 37 59 63 83 52 47 119 73 189 73 155 0 281-126 281-281 0-109-34-194-113-287z" horiz-adv-x="1156.3" />

<glyph glyph-name="cloud2" unicode="&#xe84b;" d="M1061 444c-13 207-157 406-420 406-241 0-427-179-437-418-132-41-204-182-204-285 0-158 131-297 281-297h750c152 0 282 163 282 297 0 161-132 288-252 297z m-30-563h-750c-133 0-250 124-250 266 0 95 84 266 250 266h47c9 0 16 7 16 15s-7 16-16 16h-47c-16 0-31-2-45-5 12 188 154 380 405 380 268 0 390-211 390-406v-47c0-9 7-16 16-16s16 7 16 16v47c0 0 0 0 0 0 94-11 218-112 218-266 0-120-115-266-250-266z" horiz-adv-x="1312.5" />

<glyph glyph-name="upload2" unicode="&#xe84c;" d="M1061 444c-13 207-157 406-420 406-241 0-427-179-437-418-132-41-204-182-204-285 0-158 131-297 281-297h203c9 0 16 7 16 16s-7 15-16 15h-203c-133 0-250 124-250 266 0 95 84 266 250 266h47c9 0 16 7 16 15s-7 16-16 16h-47c-16 0-31-2-45-5 12 188 154 380 405 380 268 0 390-211 390-406v-47c0-9 7-16 16-16s16 7 16 16v47c0 0 0 0 0 0 94-11 218-112 218-266 0-120-115-266-250-266h-234c-101 0-141 40-141 141v429l128-128c3-3 7-4 11-4s8 1 11 4c6 6 6 16 0 22l-140 140c-18 18-33 18-51 0l-139-140c-7-6-7-16 0-22s16-6 22 0l127 128v-429c0-119 53-172 172-172h234c152 0 282 163 282 297 0 161-132 288-252 297z" horiz-adv-x="1312.5" />

<glyph glyph-name="download2" unicode="&#xe84d;" d="M1061 444c-13 207-157 406-420 406-32 0-64-3-95-9-8-2-14-10-12-19 2-8 10-14 19-12 28 6 58 9 88 9 268 0 390-211 390-406v-47c0-9 7-16 16-16s16 7 16 16v47c0 0 0 0 0 0 95-8 218-92 218-266 0-149-110-266-250-266h-750c-124 0-250 91-250 266 0 128 79 266 250 266h47c9 0 16 7 16 15s-7 16-16 16h-47v62c0 117 72 189 188 189 105 0 187-83 187-189v-406l-130 121c-6 6-16 5-22-1-6-6-5-16 1-22l141-131c10-9 18-14 26-14 8 0 16 5 25 14l142 131c6 6 7 16 1 22-6 6-16 7-22 1l-130-121v406c0 124-97 220-219 220-133 0-219-86-219-220v-64c-164-16-250-156-250-295 0-144 99-297 281-297h750c158 0 282 130 282 297 0 197-143 290-252 297z" horiz-adv-x="1312.5" />

<glyph glyph-name="target2" unicode="&#xe84e;" d="M1306 441c-7 6-18 5-24-2l-74-89c-1 1-3 1-5 0h-43l55 67c6 8 5 18-2 24s-18 5-24-2l-73-89h-49l55 67c6 8 5 18-2 24-7 6-17 5-23-2l-74-89h-23c-1 276-225 500-500 500-276 0-500-224-500-500s224-500 500-500c265 0 482 207 498 469h26l73-89c3-4 8-6 12-6 4 0 8 1 11 4 7 6 8 16 2 23l-55 68h49l73-89c4-4 8-6 13-6 4 0 8 1 11 4 7 6 8 16 2 23l-55 68h43c2-1 4-1 5 0l74-89c3-4 8-6 13-6 4 0 8 1 11 4 7 6 8 16 2 23l-69 83 69 83c6 8 5 18-2 24z m-806-560c-258 0-469 211-469 469s211 469 469 469c258 0 468-210 469-469h-94c-1 207-169 375-375 375-207 0-375-168-375-375s168-375 375-375c196 0 357 151 373 344h94c-17-245-219-438-467-438z m250 469c-1 138-112 250-250 250-138 0-250-112-250-250s112-250 250-250c127 0 232 95 248 219h94c-16-176-163-313-342-313-189 0-344 155-344 344s155 344 344 344c189 0 343-154 344-344h-94z m-125 0c-1 70-56 125-125 125-69 0-125-56-125-125s56-125 125-125c58 0 106 40 120 94h96c-16-107-106-188-216-188-121 0-219 98-219 219s98 219 219 219c120 0 218-98 219-219h-94z m-109-31h72c-14-37-48-63-88-63-52 0-94 42-94 94s42 94 94 94c51 0 93-42 94-94h-78c-10 1-17-6-17-16s7-16 17-15z" horiz-adv-x="1312.5" />

<glyph glyph-name="hazardous" unicode="&#xe84f;" d="M500-151c276 0 501 225 501 501s-225 501-501 501-501-225-501-501 225-501 501-501z m0 969c258 0 468-210 468-468s-210-468-468-468-468 210-468 468 210 468 468 468z m-188-793c3-2 6-3 9-3 5 0 11 3 14 8l165 272 165-272c3-5 9-8 15-8 2 0 5 1 8 3 121 70 188 180 188 309 0 10-7 17-17 16h-331l166 303c5 8 2 18-6 22-115 67-261 67-376 0-8-4-11-14-6-22l166-303h-331c-10 1-17-6-17-16 0-129 67-239 188-309z m530 294c-5-106-60-196-157-257l-155 257h312z m-185 335l-157-285-157 285c97 51 217 51 314 0z m-187-335l-155-257c-97 61-152 151-157 257h312z" horiz-adv-x="1000" />

<glyph glyph-name="piechart" unicode="&#xe850;" d="M906 303c0 8-7 15-15 15h-422v423c0 8-7 15-16 15-250 0-453-203-453-452 0-259 195-454 454-454 241 0 452 212 452 453z m-875 1c0 227 181 413 407 421v-422c0-9 7-16 15-15h422c-9-219-202-407-421-407-241 0-423 182-423 423z m516 77h437c9 0 16 7 16 16 0 250-203 453-453 453-9 0-16-7-16-16v-438c0-8 7-15 16-15z m16 438c220-9 398-187 406-407h-406v407z" horiz-adv-x="1000" />

<glyph glyph-name="speedometer" unicode="&#xe851;" d="M500 851c-276 0-501-225-501-501s225-501 501-501 501 225 501 501-225 501-501 501z m0-969c-258 0-468 210-468 468s210 468 468 468 468-210 468-468-210-468-468-468z m16 779c9 0 17 8 17 17v63c0 9-8 17-17 17s-18-8-18-17v-63c0-9 8-17 18-17z m-344-278h-63c-9 0-17-8-17-17s8-18 17-18h63c9 0 17 8 17 18s-8 17-17 17z m639-17c0-10 8-18 17-18h63c9 0 17 8 17 18s-8 17-17 17h-63c-9 0-17-8-17-17z m-543 168c4 0 9 1 12 5 7 6 7 17 0 24l-49 49c-7 7-18 7-24 0-7-6-7-17 0-24l49-49c3-4 8-5 12-5z m479-344c-7 7-18 7-25 0-7-6-7-17 0-24l47-47c3-3 8-5 12-5s9 2 13 5c6 7 6 18 0 25l-47 46z m31 413c7 7 7 18 0 25-7 7-18 7-25 0l-49-49c-6-7-6-18 0-25 4-3 8-5 12-5s9 2 13 5l49 49z m-509-428l-47-47c-7-7-7-18 0-25 4-3 8-5 12-5s9 2 13 5l47 47c6 7 6 18 0 25s-18 7-25 0z m340-75h-218c-28 1-48-19-48-47v-30c0-28 21-50 48-48h218c27-2 48 20 48 48v30c0 28-20 48-48 47z m15-77c0-8-5-16-15-17h-218c-10 1-15 9-15 0v30c0 26 5 32 15 33h218c10-1 15-7 15-16v-30z m-124 244c22 0 43 8 59 24 28 29 32 73 11 105l82 83c7 6 7 17 0 23-6 7-17 7-23 0l-83-83c-32 21-77 17-105-10-32-33-32-85 0-118 16-16 37-24 59-24z m-29 112c7 8 18 13 29 13s22-5 30-13c16-16 16-42 0-58-16-16-44-16-59 0-17 16-17 42 0 58z" horiz-adv-x="1000" />

<glyph glyph-name="global" unicode="&#xe852;" d="M1 329c11-266 230-479 499-479s488 213 499 479c1 2 1 4 1 5 0 2 0 3-1 4 1 4 1 8 1 12 0 276-224 500-500 500s-500-224-500-500c0-4 1-8 1-12-1-1-1-2-1-4 0-1 1-3 1-5z m778-190c-41 18-86 31-132 40 5 45 8 93 9 140h155c-2-64-14-125-32-180z m64 180h124c-6-88-35-169-83-237-24 17-49 32-77 45 20 58 33 123 36 192z m-456-165c37 5 75 9 113 9s76-4 113-9c-22-167-69-273-113-273s-91 106-113 273z m48-262c-86 27-159 108-203 218 39 16 81 29 125 38 14-109 40-204 78-256z m-51 623c38-5 77-9 116-9s78 4 116 9c6-50 9-105 9-165h-250c0 60 3 115 9 165z m241-196c-1-48-4-93-9-134-38 6-77 9-116 9s-78-3-116-9c-6 51-8 95-9 134h250z m18-171c44-9 86-22 125-38-44-110-117-191-203-218 38 52 64 147 78 256z m13 202c0 57-3 116-9 171 46 9 91 22 132 40 21-64 34-135 34-211h-157z m-13 202c-14 109-40 204-78 256 86-27 159-108 203-218-39-16-81-29-125-38z m-30-6c-37-5-75-8-113-8s-76 3-113 8c22 167 69 273 113 273s91-106 113-273z m-256 6c-44 9-86 22-125 38 44 110 117 191 203 218-38-52-64-147-78-256z m-4-31c-6-55-9-114-9-171h-156c0 76 12 147 33 211 41-18 86-31 132-40z m-9-202c1-47 4-94 9-140-46-9-91-22-132-40-18 55-30 116-32 180h155z m-151-192c-28-13-53-28-77-45-48 68-77 149-83 237h124c3-69 16-134 36-192z m-58-70c21 15 44 29 69 41 31-78 76-143 131-186-79 30-148 80-200 145z m530-145c55 43 100 108 131 186 25-12 48-26 69-41-52-65-121-115-200-145z m179 438c0 80-14 156-37 223 28 13 53 28 77 45 53-76 85-168 85-268h-125z m21 293c-21-15-44-29-69-41-31 78-76 143-130 186 78-30 147-80 199-145z m-530 145c-55-43-100-108-131-186-25 12-48 26-69 41 52 65 121 115 200 145z m-219-170c24-17 49-32 77-45-23-67-37-143-37-223h-125c0 100 32 192 85 268z" horiz-adv-x="1000" />

<glyph glyph-name="compass2" unicode="&#xe853;" d="M0 350c0-276 224-500 500-500s500 224 500 500-224 500-500 500-500-224-500-500z m500 469c259 0 469-210 469-469s-210-469-469-469-469 211-469 469 211 469 469 469z m0-875c224 0 406 182 406 406s-182 406-406 406-406-182-406-406 182-406 406-406z m-31 779v-47c0-9 7-16 15-16s16 7 16 16v49c196 0 357-152 373-344h-47c-9 0-16-7-16-15s7-16 16-16h49c0-207-168-375-375-375v49c0 9-7 16-16 16s-15-7-15-16v-47c-192 16-344 177-344 373h49c9 0 16 7 16 16s-7 15-16 15h-47c15 182 160 327 342 342z m-176-593c4 0 7 1 9 3l176 126c7-2 14-3 22-3 52 0 94 42 94 94 0 7-1 14-3 21l128 179c5 6 4 15-1 20-6 5-14 6-20 2l-181-130c-6 1-11 2-17 2-52 0-94-42-94-94 0-6 1-12 2-18l-127-177c-5-6-4-15 1-20 3-3 7-5 11-5z m145 220c0 34 28 62 62 62s63-28 63-62-28-63-63-63-62 28-62 63z m200 141l-62-87c-7 10-15 18-25 24l87 63z m-216-193c6-9 14-17 23-24l-83-60 60 84z" horiz-adv-x="1000" />

<glyph glyph-name="lifesaver" unicode="&#xe854;" d="M179 763l-92-92c-6-6-6-16 0-22 3-3 7-5 11-5s8 2 12 5l91 92c7 6 7 16 0 22s-16 6-22 0z m712-711l-92-93c-7-6-7-16 0-22 3-3 7-4 11-4s8 1 11 4l92 92c6 7 6 16 0 23s-16 6-22 0z m-58 705c-6 6-16 6-22 0s-6-16 0-23l86-85c3-3 7-5 11-5s8 2 11 5c6 6 6 16 0 22l-86 86z m-739-718c-7-6-7-16 0-22l85-86c3-3 7-4 11-4s8 1 12 4c6 6 6 16 0 22l-86 86c-6 6-16 6-22 0z m48 503c-7-12-12-24-17-36-41-99-41-213 0-311 6-16 13-30 21-44 18-32 40-62 67-88 30-31 64-56 102-75 10-5 20-9 30-13 49-21 101-31 155-31s106 10 156 31c0 0 0 0 0 0 12 5 24 10 36 17 35 18 67 42 95 71 29 28 53 60 71 95 7 12 12 24 17 37 0 0 0 0 0 0 41 98 41 212 0 311-4 9-8 19-13 29-19 38-44 72-75 102-26 27-56 49-88 68-14 7-28 14-43 20-99 41-212 41-311 0 0 0 0 0 0 0-13-5-25-10-37-17-35-18-67-42-95-71-29-28-53-60-71-95z m299-49c0 0 0 0 0 0 13 6 27 10 41 11 15 2 29 2 44-1 11-2 23-5 33-9 0 0 0 0 0 0 19-8 36-20 51-34 14-15 26-31 33-51 0 0 0 0 0 0 0 0 0 0 0 0 7-16 11-32 12-49 1-9 0-19-1-28-1-14-5-28-11-41 0 0 0 0 0 0s0 0 0 0c-7-19-19-36-33-51-15-14-32-25-51-33 0 0 0 0 0 0-13-6-27-9-41-11-9-1-19-1-28-1-17 1-33 5-49 12-19 8-36 19-51 33-14 15-26 32-33 51-5 11-8 22-10 33-2 15-3 30-1 44 1 14 5 28 11 42 0 0 0 0 0 0s0 0 0 0c8 19 19 36 33 50 15 14 32 25 51 33z m411-14c30-83 30-175 0-258l-174 72c3 12 6 24 7 35 2 12 2 23 1 34-1 15-4 30-8 45l174 72z m-536-160c2-9 4-17 6-26l-174-72c-30 83-30 175 0 258l174-72c-3-12-6-24-7-35-2-18-2-35 1-53z m-81-234c-25 24-45 52-62 82-5 8-9 16-13 25l174 72c9-17 20-32 34-46 14-13 29-25 47-34l-73-174c-4 2-8 4-13 6-35 18-66 41-94 69z m136-87l72 174c15-4 30-7 45-8 11-1 22 0 34 1 11 1 23 4 35 7l72-174c-83-31-175-31-258 0z m394 87c-26-26-55-48-88-66-6-3-13-6-19-9l-72 174c17 9 32 21 46 34 14 14 25 29 34 47l174-73c-3-6-6-13-9-19-18-33-40-62-66-88z m0 530c28-28 51-59 69-94 2-5 4-9 6-13l-174-72c-9 17-20 32-34 46-14 14-29 25-46 34l72 174c9-4 17-8 26-13 30-17 57-37 81-62z m-136 87l-72-174c-9 2-17 4-26 6-17 3-35 3-53 1-11-1-23-4-35-7l-72 174c83 31 175 31 258 0z m-306-21c6 3 13 6 19 9l73-174c-18-9-33-20-47-34-13-14-25-29-34-46l-174 72c3 6 6 13 9 19 18 33 40 62 66 88 26 26 55 48 88 66z m409-739c-143-81-321-81-464 0-7 5-17 2-21-5-4-8-2-17 6-22 76-43 162-65 247-65s171 22 247 65c8 5 10 14 6 22-4 7-14 10-21 5z m-667 655c-87-152-87-342 0-494 3-5 9-8 14-8 3 0 5 1 8 2 7 4 10 14 6 21-82 143-82 321 0 464 4 7 1 17-6 21-8 4-17 2-22-6z m870-494c87 152 87 342 0 494-5 8-14 10-22 6-7-4-10-14-5-21 81-143 81-321 0-464-5-7-2-17 5-21 3-1 6-2 8-2 6 0 11 3 14 8z m-667 655c143 81 321 81 464 0 2-2 5-2 8-2 5 0 10 2 13 7 4 8 2 17-6 22-152 87-342 87-494 0-8-5-10-14-6-22 4-7 14-10 21-5z" horiz-adv-x="1000" />

<glyph glyph-name="clock2" unicode="&#xe855;" d="M500-150c276 0 500 224 500 500s-224 500-500 500-500-224-500-500 224-500 500-500z m0 969c259 0 469-210 469-469s-210-469-469-469-469 211-469 469 211 469 469 469z m127-649c3-3 7-5 11-5s8 2 11 5c6 6 6 16 0 22l-149 149v218c0 8-7 15-16 15s-15-7-15-15v-225c0-4 1-8 4-11l154-153z m-533 180c0-17 14-31 31-31s31 14 31 31c0 17-14 31-31 31s-31-14-31-31z m750 0c0-17 14-31 31-31s31 14 31 31c0 17-14 31-31 31s-31-14-31-31z m-375 375c0-17 14-31 31-31s31 14 31 31c0 17-14 31-31 31s-31-14-31-31z m0-750c0-17 14-31 31-31s31 14 31 31c0 17-14 31-31 31s-31-14-31-31z m-250 625c0-17 14-31 31-31s31 14 31 31c0 17-14 31-31 31s-31-14-31-31z m500-500c0-17 14-31 31-31s31 14 31 31c0 17-14 31-31 31s-31-14-31-31z m31 500c0-17 14-31 31-31s32 14 32 31c0 17-14 31-32 31s-31-14-31-31z m-531-500c0-17 14-31 31-31s31 14 31 31c0 17-14 31-31 31s-31-14-31-31z" horiz-adv-x="1000" />

<glyph glyph-name="aperture" unicode="&#xe856;" d="M500-150c276 0 500 224 500 500s-224 500-500 500-500-224-500-500 224-500 500-500z m-259 890c-27-74-41-150-39-227 2-57 11-113 29-168 13-42 31-83 53-120 3-6 7-12 10-18 3-4 8-7 13-7 3 0 6 1 9 2 7 5 9 14 5 22-4 5-7 11-10 17-21 35-38 73-51 114-16 52-25 105-27 158-2 82 13 162 46 242 2 3 3 7 5 11 65 33 138 53 216 53 75 0 145-18 208-50-77-13-150-39-216-80-48-29-92-65-131-108-30-33-56-69-77-106-4-6-7-12-11-18-4-8-1-17 7-21 2-1 5-2 7-2 6 0 11 3 14 8 3 6 6 12 10 17 20 36 45 70 73 101 37 40 79 75 124 103 70 42 147 70 230 80 5 1 9 1 14 2 122-79 206-212 215-365-50 60-109 110-177 147-50 27-103 46-159 59-51 11-102 15-152 14-8-1-15-8-15-17 1-8 7-15 16-15 0 0 0 0 0 0 47 2 96-2 144-13 53-12 104-30 151-56 72-39 134-92 186-161 2-3 5-6 7-8-7-155-88-290-209-370 28 74 41 150 39 227-2 57-11 113-29 168-13 42-31 83-52 120-4 6-7 12-11 18-5 7-14 9-22 5-7-5-9-14-5-22 4-5 7-11 11-17 20-35 37-73 50-114 16-52 25-105 27-158 2-82-13-162-46-242-2-3-3-7-5-11-65-33-138-53-216-53-75 0-145 18-208 50 77 13 150 39 216 80 48 29 92 66 131 108 30 33 56 69 78 106 3 6 6 12 10 18 4 8 1 17-7 21-7 4-17 1-21-6-3-6-6-12-10-17-20-36-45-69-73-101-37-40-79-75-124-103-70-42-147-69-230-80-5-1-9-1-14-2-122 79-206 212-215 365 50-60 109-110 177-147 50-26 103-46 159-59 44-9 88-14 131-14 7 0 14 0 21 0 8 1 15 8 15 17 0 8-7 15-16 15-47-2-96 2-144 13-53 12-104 30-151 56-72 39-134 92-186 161-2 3-5 6-7 9 7 154 88 289 209 369z" horiz-adv-x="1000" />

<glyph glyph-name="quote" unicode="&#xe857;" d="M500-150c276 0 500 224 500 500s-224 500-500 500-500-224-500-500 224-500 500-500z m0 969c259 0 469-210 469-469s-210-469-469-469-469 211-469 469 211 469 469 469z m-165-395c16-6 33-3 48 7 8 4 10 14 5 21-4 7-14 10-21 5-8-5-15-6-22-4-7 3-14 9-19 18-5 8-7 17-5 27 2 9 8 17 16 22 19 12 44 5 61-7 27-21 40-57 40-116 0-88-40-197-117-236-8-4-11-13-7-21 3-6 8-9 14-9 3 0 5 1 7 2 92 47 134 169 134 264 0 69-17 114-53 141-29 22-68 26-96 8-15-9-25-24-29-41-4-18-1-36 8-51 10-15 22-26 36-30z m250 0c16-6 33-3 48 7 8 4 10 14 5 21-4 7-14 10-21 5-8-5-15-6-22-4-7 3-14 9-19 18-5 8-7 17-5 27 2 9 8 17 16 22 19 12 44 5 61-7 27-21 40-57 40-116 0-88-40-197-117-236-8-4-11-13-7-21 3-6 8-9 14-9 3 0 5 1 7 2 92 47 134 169 134 264 0 69-17 114-53 141-29 22-68 26-96 8-15-9-25-24-29-41-4-18-1-36 8-51 10-15 22-26 36-30z" horiz-adv-x="1000" />

<glyph glyph-name="scope" unicode="&#xe858;" d="M531 647c0 9-7 16-15 16s-16-7-16-16v-266h-297c-8 0-15-7-15-15s7-16 15-16h297v-296c0-8 7-15 16-15s15 7 15 15v296h296c9 0 16 7 16 16s-7 15-16 15h-296v266z m455-266h-81c-16 199-175 358-374 374v79c0 9-7 16-15 16s-16-7-16-16v-78c-213 0-389-165-405-375h-77c-9 0-16-7-16-15s7-16 16-16h76c0-224 182-406 406-406v-78c0-9 7-16 16-16s15 7 15 16v79c210 16 375 192 375 405h80c9 0 16 7 16 16s-7 15-16 15z m-486-406c-207 0-375 168-375 375s168 375 375 375 375-168 375-375-168-375-375-375z" horiz-adv-x="1000" />

<glyph glyph-name="alarmclock" unicode="&#xe859;" d="M469 788c-241 0-438-197-438-438s197-438 438-438 437 197 437 438-196 438-437 438z m0-844c-224 0-406 182-406 406s182 406 406 406 406-182 406-406-182-406-406-406z m-235 906c-129 0-234-105-234-234v-34c0-8 7-15 16-15s15 7 15 15v34c0 112 91 203 203 203h28c8 0 15 7 15 15s-7 16-15 16h-28z m465 0h-27c-9 0-16-7-16-16s7-15 16-15h27c112 0 203-91 203-203v-34c0-8 7-15 16-15s16 7 16 15v34c0 129-105 234-235 234z m-230-509v218c0 8-7 15-16 15s-15-7-15-15v-225c0-4 1-8 4-11l154-153c3-3 7-5 11-5s8 2 11 5c6 6 6 16 0 22l-149 149z m-410-485l94 125c5 7 4 17-3 22-7 5-17 4-22-3l-94-125c-5-7-3-17 4-22 2-2 6-3 9-3 5 0 9 2 12 6z m750 144c-5 7-15 8-21 3-7-5-9-15-4-22l94-125c3-4 8-6 13-6 3 0 6 1 9 3 7 5 8 15 3 22l-94 125z" horiz-adv-x="937.5" />

<glyph glyph-name="refresh2" unicode="&#xe85a;" d="M832 725h152c9 0 16 7 16 16s-7 15-16 15h-187c-9 0-16-7-16-15v-188c0-8 7-15 16-15s16 7 16 15v148l19-20c88-88 137-206 137-331s-49-243-137-331c-132-132-329-173-502-106-8 3-17-1-20-9-3-8 1-17 9-20 59-23 120-34 181-34 130 0 258 51 354 146 94 95 146 221 146 354s-52 259-146 354l-22 21z m-629-562c-8 0-15-7-15-16v-151l-23 22c-88 88-137 206-137 331s49 243 137 332c129 129 324 172 495 108 8-3 17 1 20 9 3 8-1 17-9 20-183 68-390 23-528-115-94-94-146-220-146-354s52-259 146-353l21-21h-148c-9 0-16-7-16-16s7-15 16-15h183c1-1 11 0 14 4 1 0 1 0 1 0 3 3 5 7 5 11v188c0 9-7 16-16 16z" horiz-adv-x="1000" />

<glyph glyph-name="happy" unicode="&#xe85b;" d="M500 851c-276 0-501-225-501-501s225-501 501-501 501 225 501 501-225 501-501 501z m0-969c-258 0-468 210-468 468s210 468 468 468 468-210 468-468-210-468-468-468z m-172 452c35 0 63 28 63 63s-28 62-63 62-62-28-62-62 28-63 62-63z m0 94c17 0 31-14 31-31s-14-31-31-31-31 14-31 31 14 31 31 31z m344-94c34 0 62 28 62 63s-28 62-62 62-63-28-63-62 28-63 63-63z m0 94c17 0 31-14 31-31s-14-31-31-31-31 14-31 31 14 31 31 31z m41-268c-53-57-128-90-206-90-79 0-154 34-208 93-6 6-16 7-23 1-7-6-8-17-1-24 59-66 144-104 232-104 88 0 172 37 231 102 6 6 6 17-1 23s-17 6-24-1z" horiz-adv-x="1000" />

<glyph glyph-name="sad" unicode="&#xe85c;" d="M500 851c-276 0-501-225-501-501s225-501 501-501 501 225 501 501-225 501-501 501z m0-969c-258 0-468 210-468 468s210 468 468 468 468-210 468-468-210-468-468-468z m5 349c-87 0-171-37-230-102-7-6-6-17 1-23 6-6 17-6 23 1 53 57 128 90 206 90 79 0 155-34 208-93 3-3 8-5 13-5 4 0 8 1 11 4 7 6 7 17 1 24-60 66-144 104-233 104z m-177 103c35 0 63 28 63 63s-28 62-63 62-62-28-62-62 28-63 62-63z m0 94c17 0 31-14 31-31s-14-31-31-31-31 14-31 31 14 31 31 31z m344-94c34 0 62 28 62 63s-28 62-62 62-63-28-63-62 28-63 63-63z m0 94c17 0 31-14 31-31s-14-31-31-31-31 14-31 31 14 31 31 31z" horiz-adv-x="1000" />

<glyph glyph-name="facebook2" unicode="&#xe85d;" d="M500 851c-276 0-501-225-501-501s225-501 501-501 501 225 501 501-225 501-501 501z m0-969c-258 0-468 210-468 468s210 468 468 468 468-210 468-468-210-468-468-468z m109 749h-83c-106 1-120-64-120-135v-52h-47c-9 1-16-7-15-16v-94c-1-9 6-16 15-15h47v-235c-1-9 7-16 16-15h95c10-1 17 6 14 15l0 235h78c10-1 17 6 16 15v94c1 9-6 17-16 16h-78l0 47c3 20 3 16 22 15h56c4 1 9 1 12 4s5 7 4 12v94c1 9-6 16-16 15z m-16-92l-39 2c-49 0-53-27-53-54l0-59c0-4 2-8 5-12 3-3 7-4 11-4h77v-61h-76c-10 0-17-7-17-17l0-234h-63v234c0 10-7 17-16 17h-47v60h47c4 0 9 2 12 5 3 4 4 8 4 12v68c0 70 14 103 88 103h67v-60z" horiz-adv-x="1000" />

<glyph glyph-name="twitter2" unicode="&#xe85e;" d="M500 851c-276 0-501-225-501-501s225-501 501-501 501 225 501 501-225 501-501 501z m0-969c-258 0-468 210-468 468s210 468 468 468 468-210 468-468-210-468-468-468z m275 623c3 6 6 13 8 20 2 7 0 14-5 18-6 4-13 5-19 1-16-9-33-16-51-21-22 20-51 31-81 31-65 0-119-53-119-119 0-2 0-3 0-5-70 9-134 44-179 99-3 5-9 7-14 6-6 0-11-3-13-8-11-18-16-39-16-60 0-20 5-39 14-56-3 0-5-1-7-3-5-3-8-9-8-15 0-35 15-68 41-90 0 0-1 0-1-1-4-4-5-10-4-16 11-34 37-61 69-74-33-16-71-22-107-18-7 1-15-4-17-11-3-7 0-15 6-20 50-32 108-48 167-48 193 0 308 156 308 308 0 2 0 4 0 5 19 15 35 32 48 52 4 6 4 14-1 20-5 6-12 8-19 5z m-55-55c-4-3-7-9-7-14 1-5 1-9 1-13 0-135-103-275-275-275-31 0-62 5-91 15 35 7 67 22 95 44 6 4 8 11 6 18-2 7-8 11-16 12-27 0-53 14-68 36 8 0 16 2 23 4 8 2 13 9 12 16 0 8-5 15-13 16-31 7-56 30-65 60 8-2 17-4 25-4 8 0 14 5 17 12s-1 15-7 19c-24 16-38 42-38 71 0 7 1 14 2 21 55-56 128-89 206-93 5 0 10 2 13 6s5 9 4 14c-2 7-2 13-2 20 0 47 38 86 85 86 24 0 47-10 63-27 4-5 10-6 16-5 5 1 10 2 15 3-2-1-5-3-7-4-7-4-10-13-7-20s10-12 17-11c2 0 4 0 6 0-3-2-6-5-10-7z" horiz-adv-x="1000" />

<glyph glyph-name="googleplus" unicode="&#xe85f;" d="M500 851c-276 0-501-225-501-501s225-501 501-501 501 225 501 501-225 501-501 501z m0-969c-258 0-468 210-468 468s210 468 468 468 468-210 468-468-210-468-468-468z m64 669c0 9-8 17-17 17h-133c-1 0-2 0-2-1-2 1-4 1-6 1-69 0-126-48-126-108s57-107 126-107c10 0 19 1 28 3-2-9-3-20-2-31 2-11 6-22 12-32-12 2-24 3-36 3-86 0-156-51-156-115s70-115 156-115c86 0 156 52 156 115 0 33-19 62-49 83-1 3-3 6-6 8-26 18-41 37-44 57-3 21 10 37 11 38 1 2 2 4 3 6 32 19 53 51 53 87 0 29-13 55-35 75h50c9 0 17 7 17 16z m-156-452c-68 0-123 37-123 82s55 82 123 82 122-37 122-82-55-82-122-82z m-2 287c-51 0-92 34-92 74s41 75 92 75 93-34 93-75-42-74-93-74z m385 89h-73v74c0 9-8 17-17 17s-16-8-13-13v-78h-77c-9 1-16-6-16-16s7-16 16-15h77v-74c0-10 4-17 13-17s17 7 17 17v74h73c9-1 17 6 17 15s-8 17-17 16z" horiz-adv-x="1000" />

<glyph glyph-name="rss2" unicode="&#xe860;" d="M500 851c-276 0-501-225-501-501s225-501 501-501 501 225 501 501-225 501-501 501z m0-969c-258 0-468 210-468 468s210 468 468 468 468-210 468-468-210-468-468-468z m-172 532c-9 0-16-7-16-17s7-16 16-16c71 0 130-22 171-63 41-41 62-101 62-171 0-9 8-17 17-17s17 8 17 17c0 79-25 147-73 194-47 48-114 73-194 73z m0 154c-9 0-16-8-16-17s7-16 16-16c223 0 392-167 392-388 0-9 7-17 16-17s17 8 17 17c0 240-183 421-425 421z m47-308c-35 0-64-29-64-64 0-35 29-63 64-63 35 0 64 28 64 63 0 35-29 64-64 64z m0-94c-17 0-30 14-30 30 0 17 13 31 30 31s30-14 30-31c0-16-13-30-30-30z" horiz-adv-x="1000" />

<glyph glyph-name="tumblr2" unicode="&#xe861;" d="M500 851c-276 0-501-225-501-501s225-501 501-501 501 225 501 501-225 501-501 501z m0-969c-258 0-468 210-468 468s210 468 468 468 468-210 468-468-210-468-468-468z m141 593h-110v109c1 10-6 17-15 17h-81c-8 0-15-6-17-15-2-23-8-43-15-58-8-14-18-27-30-38-10-8-27-16-50-24-7-2-11-8-10-16v-84c-1-10 6-17 15-16l47-31v-146c-1 9 1 3 6-7l1-5c1 0 16-40 35-56 15-12 32-21 51-28 18-6 34-9 59-9 21 0 42 2 60 6 21 5 41 12 61 21 6 3 9 9 8 15v76c1 6-2 11-7 14s-12 3-18 0c-22-15-33-17-56-17-10 0-19 2-27 6-4 6-8 24-10 32-2 6-3 11-4 13-2 5-2 21-2 40l0 76h109c9-1 16 6 15 16v93c1 10-6 17-15 16z m-17-94h-108c-10 1-17-6-16-15l0-92c-1-26-1-41 3-51 0-2 1-6 3-11 8-31 13-44 23-51 13-8 29-12 46-12 18 0 33 2 49 9v-37c-15-6-29-11-44-14-16-4-34-6-53-6-21 0-33 3-49 8-15 5-28 12-39 21-8 8-20 30-26 44l-2 5c-3 7-4 9-5 25v162c1 9-6 16-15 16h-46v56c21 8 38 17 50 27 15 13 28 30 37 48 8 15 14 33 17 55h50v-109c0-9 7-16 17-15h108v-63z" horiz-adv-x="1000" />

<glyph glyph-name="linkedin2" unicode="&#xe862;" d="M610 477c-21 0-37-6-49-13-2 7-9 13-16 11h-94c-9 2-16-6-13-16v-343c-3-9 4-17 13-16h94c9-1 16 7 16 16l0 208c0 0 0 10 6 17 5 5 14 8 26 8 20 0 29-8 32-26v-207c-3-9 4-17 13-16h99c9-1 16 7 13 16v214c3 108-74 147-140 147z m110-346h-65v192c0 36-24 59-62 59-22 0-39-6-50-19-16-17-15-39-12-44v-188h-63v312h60v-10c0-7 4-13 9-15s13-2 18 1l4 4c13 10 26 20 51 20 26 0 110-8 110-114v-198z m-376 501c-35 0-64-28-64-63s29-64 64-64 63 29 63 64-28 63-63 63z m0-93c-17 0-30 13-30 30s13 30 30 30 30-14 30-30-14-30-30-30z m44-62h-92c-10 0-17-8-15-18v-343c-2-9 5-17 15-16h92c10-1 17 7 17 16v344c0 9-7 17-17 17z m-13-346h-63v312h63v-312z m125 720c-276 0-501-225-501-501s225-501 501-501 501 225 501 501-225 501-501 501z m0-969c-258 0-468 210-468 468s210 468 468 468 468-210 468-468-210-468-468-468z" horiz-adv-x="1000" />

<glyph glyph-name="dribbble2" unicode="&#xe863;" d="M500 851c-276 0-501-225-501-501s225-501 501-501 501 225 501 501-225 501-501 501z m0-969c-258 0-468 210-468 468s210 468 468 468 468-210 468-468-210-468-468-468z m183 640c-48 51-113 79-183 79-33 0-65-6-95-19-86-35-146-114-155-207-1-8-1-16-1-25 0-76 34-147 93-195 44-36 101-56 158-56 36 0 71 8 105 23 68 31 118 91 137 163 0 0 0 0 0 0 6 22 9 44 9 65 0 64-24 125-68 172z m31-213c-6 1-11 2-17 3-7 1-14 3-21 4-9 1-17 1-26 2-6 0-13 1-20 1-2 0-4 0-6 0-11 0-22 0-33-1-1 0-3-1-4-1-9-1-18-2-26-3-2 3-3 7-5 11-5 14-11 29-18 43-1 4-2 7-4 11 3 1 6 2 9 4 4 1 7 3 10 4 7 3 14 7 20 10 2 1 4 2 6 4 8 4 16 9 23 14 2 1 3 3 5 4 5 4 11 8 16 12 2 2 4 3 6 5 4 4 8 8 12 11 2 2 3 4 5 6 4 4 9 8 12 13 1 1 2 2 3 3 4 4 8 9 11 14 30-38 46-85 46-133 0-13-2-27-4-41z m-214 259c56 0 109-21 149-60 0 0-1-1-1-2-1-1-3-3-4-5-2-3-5-6-7-9-2-2-3-4-5-5-3-3-5-7-8-10-2-1-4-3-6-5-3-4-7-7-11-10-1-2-3-3-5-5-6-5-12-9-18-14-1 0-1-1-2-1-6-4-12-8-19-12-3-2-6-3-8-5-5-2-11-5-16-8-3-1-7-3-10-4-3-1-6-2-9-4-1 2-2 3-3 5-6 14-13 27-19 39-1 1-1 2-2 3-6 12-12 23-18 34-1 2-3 5-4 7-6 10-12 20-17 30-2 2-3 4-4 6-5 8-10 16-15 23 0 1-1 2-1 2 20 7 42 10 63 10z m-95-22c0 0 0-1 1-1 5-8 10-16 16-25 1-2 2-4 3-6 6-9 12-19 18-30 1-1 1-3 2-4 6-10 12-21 18-32 1-3 2-5 4-7 6-12 13-25 19-39 1-1 1-2 2-3-11-3-21-6-32-8-2 0-3-1-5-1-34-6-70-8-110-6-3 0-6 0-9 0-15 1-30 2-46 4 12 69 56 127 119 158z m-123-196c0 2 0 3 0 5 5-1 9-1 13-1 13-2 25-3 37-3 7-1 14-1 20-1 5 0 9-1 13-1 0 0 0 0 0 0 9 0 18 1 27 1 3 1 7 1 11 1 16 1 31 3 47 5 4 1 7 2 11 2 12 2 23 5 34 8 2 1 5 1 7 2 2-4 3-7 5-11 6-13 11-27 17-41 1-3 2-6 4-10-4-1-7-2-10-3-4-1-9-3-13-4-7-3-13-5-20-8-3-2-7-3-10-5-8-3-16-7-23-11-2-1-4-2-5-3-9-5-18-11-26-17-2-1-4-3-6-4-6-5-11-9-17-13-2-2-5-4-7-7-5-4-9-7-13-11-3-3-5-5-8-7-3-4-7-8-10-11-3-3-5-5-7-8-1 0-2-1-2-2-44 41-69 98-69 158z m95-179c0 0 1 1 1 2 2 2 4 4 6 6 3 3 7 7 10 10 2 2 5 4 7 7 4 3 7 6 11 10 3 2 5 4 8 6 4 4 9 7 13 11 3 2 5 3 8 5 6 5 13 9 20 13 1 1 2 1 3 2 8 5 17 9 26 13 2 2 5 3 8 4 6 3 13 5 19 8 4 1 8 2 11 3 4 1 8 2 11 3 7-19 14-39 21-59 0-1 0-2 0-3 7-21 12-43 18-65-67-26-143-16-201 24z m232-9c-5 19-10 39-16 58 0 1-1 2-1 2-6 20-12 40-19 59 4 1 9 2 14 2 3 1 7 1 11 2 11 0 22 1 34 1 1 0 2 0 4 0 13-1 26-2 39-4 4 0 7-1 11-2 6-1 12-2 19-3-18-49-51-89-96-115z" horiz-adv-x="1000" />

<glyph glyph-name="eye2" unicode="&#xe864;" d="M500 704q68 0 132-20t113-54 91-73 72-80 51-73 31-54l10-21q-2-5-6-13t-19-34-30-50-44-59-55-63-68-58-81-51-92-34-105-13q-68 0-132 21t-113 53-91 73-72 80-51 72-31 54l-10 21q2 4 6 13t19 34 31 50 43 59 55 63 68 59 81 51 92 34 105 13z m0-83q-46 0-89-12t-80-31-69-46-58-54-48-56-36-51-26-43q12-22 26-43t36-51 48-56 58-52 69-46 80-31 89-11 90 12 79 31 69 45 58 53 48 56 37 52 25 42q-12 21-25 43t-37 51-48 56-58 53-69 46-79 31-90 12z m0-125q69 0 118-49t49-118-49-118-118-48-118 48-49 118 49 118 118 49z m0-83q-34 0-59-25t-24-59 24-59 59-24 59 24 24 59-24 59-59 25z" horiz-adv-x="1000" />

<glyph glyph-name="paper-clip" unicode="&#xe865;" d="M658 829q41 0 78-15 39-16 69-46 31-30 46-68 15-37 15-78t-15-79q-15-38-46-68l-383-384q-18-17-42-27-23-10-47-10t-46 10q-25 10-42 27-18 18-28 42-9 22-9 46 0 26 9 48 10 22 28 41l354 354q12 12 29 12 17 0 30-12t12-30q0-17-12-29l-354-354q-12-12-12-30 0-17 12-29 13-12 29-12t30 12l383 384q37 36 37 88t-37 87q-37 37-88 37-51 0-88-37l-384-382q-30-30-46-69-15-38-15-79 0-40 15-78 16-39 46-69 31-30 69-46t78-15 79 15 69 46l383 383q12 13 29 13 17 0 30-13t12-29q0-17-12-30l-383-383q-42-42-97-64-52-21-110-21-57 0-109 21-55 22-97 64-42 42-64 97-21 53-21 109 0 58 21 110 22 54 64 97h0l384 382q30 30 69 46 38 15 78 15z" horiz-adv-x="1000" />

<glyph glyph-name="mail" unicode="&#xe866;" d="M167 704h666q52 0 89-36t36-89v-500q0-52-36-88t-89-37h-666q-52 0-89 37t-36 88v500q0 52 36 89t89 36z m708-625v455l-349-279q-11-9-26-9t-26 9l-349 279v-455q0-17 12-29t30-12h666q18 0 30 12t12 29z m-42 542h-666q-6 0-14-2l347-278 347 278q-7 2-14 2z" horiz-adv-x="1000" />

<glyph glyph-name="toggle" unicode="&#xe867;" d="M333 663h334q67 0 129-27t107-71 71-106 26-130-26-129-71-107-107-71-129-26h-334q-67 0-129 26t-106 71-72 107-26 129 26 130 72 106 106 71 129 27z m0-167q69 0 118-49t49-118-49-118-118-48-117 48-49 118 49 118 117 49z m0-83q-34 0-59-25t-24-59 24-59 59-24 59 24 25 59-25 59-59 25z m334 166h-334q-68 0-125-33t-91-91-34-126 34-125 91-91 125-34h334q68 0 125 34t91 91 34 125-34 126-91 91-125 33z" horiz-adv-x="1000" />

<glyph glyph-name="layout" unicode="&#xe868;" d="M167 788h666q52 0 89-37t36-88v-667q0-52-36-89t-89-36h-666q-52 0-89 36t-36 89v667q0 51 36 88t89 37z m166-834v500h-208v-458q0-17 12-30t30-12h166z m542 42v458h-458v-500h416q18 0 30 12t12 30z m-42 708h-666q-18 0-30-12t-12-29v-125h750v125q0 17-12 29t-30 12z" horiz-adv-x="1000" />

<glyph glyph-name="link3" unicode="&#xe869;" d="M708 788q50 0 95-19t82-55 55-82 18-94q0-49-18-95t-55-82l-125-125q-3-4-11-10-34-31-77-47t-89-16q-57 0-107 24-38 18-69 49t-49 69q24 24 59 24 12 0 24-3 21-35 55-56 41-24 87-24 33 0 64 12t54 37l125 125q24 24 37 54t12 64-12 63-37 54-54 37-64 12-63-12-54-37l-88-87q-42 11-86 11-7 0-20 0 6 7 10 10l125 125q35 36 81 55t95 19z m-291-292q57 0 107-25 39-17 69-48t49-69q-24-25-59-25-12 0-24 4-21 34-55 55-40 25-87 25-33 0-63-13t-55-36l-125-125q-24-24-37-55t-12-63 12-63 37-55 55-37 63-12 63 12 55 37l87 88q42-12 86-12 8 0 21 1-7-7-11-11l-125-125q-36-36-81-55t-95-18q-49 0-95 19t-82 54q-36 36-55 82t-18 95 18 95 55 82l125 125q4 3 11 10 35 31 78 47t88 16z" horiz-adv-x="1000" />

<glyph glyph-name="bell2" unicode="&#xe86a;" d="M500 788q54 0 102-18t85-48 66-73 50-91 30-104q33-165 70-261t97-155h-382q7-21 7-42 0-52-37-89t-88-36-88 36-37 89q0 21 7 42h-382q60 59 97 155t70 261q11 55 30 104t50 91 67 73 84 48 102 18z m0-750q-17 0-29-13t-13-29 13-30 29-12 30 12 12 30-12 29-30 13z m0 666q-38 0-71-12t-57-29-44-44-33-50-23-51-15-45-9-35q-41-210-91-317h686q-50 107-91 317-4 17-8 35t-16 45-23 51-33 50-44 44-57 29-71 12z" horiz-adv-x="1000" />

<glyph glyph-name="lock3" unicode="&#xe86b;" d="M500 788q68 0 126-34t91-91 33-125v-167h83q52 0 89-37t36-88v-250q0-52-36-89t-89-36h-666q-52 0-89 36t-36 89v250q0 52 36 88t89 37h83v167q0 68 34 125t91 91 125 34z m333-500h-666q-18 0-30-13t-12-29v-250q0-17 12-30t30-12h666q18 0 30 12t12 30v250q0 17-12 29t-30 13z m-333 416q-69 0-118-49t-49-117v-167h334v167q0 69-49 117t-118 49z" horiz-adv-x="1000" />

<glyph glyph-name="unlock2" unicode="&#xe86c;" d="M500 788q68 0 126-34t91-91 33-125v-42q0-17-12-30t-30-12-29 12-12 30v42q0 69-49 117t-118 49-118-49-49-117v-167h500q52 0 89-37t36-88v-250q0-52-36-89t-89-36h-666q-52 0-89 36t-36 89v250q0 52 36 88t89 37h83v167q0 68 34 125t91 91 125 34z m333-500h-666q-18 0-30-13t-12-29v-250q0-17 12-30t30-12h666q18 0 30 12t12 30v250q0 17-12 29t-30 13z" horiz-adv-x="1000" />

<glyph glyph-name="ribbon" unicode="&#xe86d;" d="M292 788h416q52 0 89-37t36-88v-792l-333 250-333-250v792q0 51 36 88t89 37z m416-84h-416q-18 0-30-12t-12-29v-625l250 187 250-187v625q0 17-12 29t-30 12z" horiz-adv-x="1000" />

<glyph glyph-name="image2" unicode="&#xe86e;" d="M167 788h666q52 0 89-37t36-88v-667q0-52-36-89t-89-36h-666q-52 0-89 36t-36 89v667q0 51 36 88t89 37z m708-684l-208 208-358-358h524q18 0 30 12t12 30v108z m-42 600h-666q-18 0-30-12t-12-29v-667q0-17 12-30t30-12h24l476 476 208-209v442q0 17-12 29t-30 12z m-500-83q52 0 89-37t36-88-36-88-89-37-88 37-37 88 37 88 88 37z m0-83q-17 0-29-13t-12-29 12-30 29-12 30 12 12 30-12 29-30 13z" horiz-adv-x="1000" />

<glyph glyph-name="signal2" unicode="&#xe86f;" d="M500 663q128 0 249-45t220-133q14-12 14-31 0-16-11-27l-2-2q-12-12-29-12-16 0-28 10-86 77-193 117t-220 39-220-39-193-117q-12-10-28-10-19 0-31 14-11 11-11 27 0 19 14 31 99 88 220 133t249 45z m0-500q57 0 106-29 9-6 15-16t5-20-6-21q-2-5-6-9-12-12-30-12-11 0-20 6-30 17-64 17-33 0-63-17-11-6-21-6-24 0-36 21-6 9-6 20 0 24 20 37 49 29 106 29z m0 249q79 0 153-26t137-77q15-12 15-32 0-15-9-27-2-2-3-3-12-12-29-12-15 0-27 10-50 41-112 63t-125 21-125-21-112-63q-12-10-27-10-19 0-32 15-9 12-9 27 0 20 15 32 62 51 137 77t153 26z" horiz-adv-x="1000" />

<glyph glyph-name="target" unicode="&#xe870;" d="M500 788q93 0 178-37t146-97 98-147 36-178-36-178-98-146-146-98-178-36-178 36-146 98-98 146-36 178 36 178 98 147 146 97 178 37z m0-84q-76 0-146-30t-119-79-80-120-30-146 30-145 80-120 119-80 146-30 146 30 119 80 80 120 30 145-30 146-80 120-119 79-146 30z m0-83q59 0 113-23t93-62 63-94 23-113-23-113-63-93-93-62-113-23-113 23-93 62-63 93-23 113 23 113 63 94 93 62 113 23z m0-83q-42 0-81-17t-66-44-45-67-16-81 16-81 45-66 66-45 81-16 81 16 66 45 45 66 16 81-16 81-45 67-66 44-81 17z m0-84q52 0 88-36t37-89-37-88-88-37-88 37-37 88 37 89 88 36z m0-83q-17 0-29-12t-13-30 13-29 29-12 30 12 12 29-12 30-30 12z" horiz-adv-x="1000" />

<glyph glyph-name="clipboard2" unicode="&#xe871;" d="M417 788h166q41 0 73-24t45-60h49q52 0 88-36t37-89v-583q0-52-37-89t-88-36h-500q-52 0-88 36t-37 89v583q0 52 37 89t88 36h49q13 37 45 60t73 24z m333-167h-49q-13-37-45-60t-73-23h-166q-41 0-73 23t-45 60h-49q-17 0-29-12t-13-30v-583q0-17 13-30t29-12h500q17 0 30 12t12 30v583q0 17-12 30t-30 12z m-167 83h-166q-18 0-30-12t-12-29 12-30 30-12h166q18 0 30 12t12 30-12 29-30 12z" horiz-adv-x="1000" />

<glyph glyph-name="clock" unicode="&#xe872;" d="M500 788q93 0 178-37t146-97 98-147 36-178-36-178-98-146-146-98-178-36-178 36-146 98-98 146-36 178 36 178 98 147 146 97 178 37z m0-84q-76 0-146-30t-119-79-80-120-30-146 30-145 80-120 119-80 146-30 146 30 119 80 80 120 30 145-30 146-80 120-119 79-146 30z m0-83q17 0 30-12t12-30v-233l113-112q12-12 12-30t-12-29-30-12-30 12l-125 125q-12 12-12 29v250q0 17 13 30t29 12z" horiz-adv-x="1000" />

<glyph glyph-name="watch" unicode="&#xe873;" d="M375 829h250q52 0 88-36t37-89v-95q59-53 92-125t33-155-33-154-92-125v-96q0-52-37-88t-88-37h-250q-52 0-88 37t-37 88v96q-59 52-92 125t-33 154 33 155 92 125v95q0 52 37 89t88 36z m292-875v39q-78-39-167-39t-167 39v-39q0-17 13-29t29-13h250q17 0 30 13t12 29z m-167 667q-59 0-113-23t-93-62-63-94-23-113 23-113 63-93 93-62 113-23 113 23 93 62 63 93 23 113-23 113-63 94-93 62-113 23z m0-83q17 0 30-13t12-29v-150l71-70q12-13 12-30t-12-30-30-12-29 12l-84 84q-12 12-12 29v167q0 17 13 29t29 13z m125 208h-250q-17 0-29-12t-13-30v-39q79 39 167 39t167-39v39q0 17-12 30t-30 12z" horiz-adv-x="1000" />

<glyph glyph-name="air-play" unicode="&#xe874;" d="M167 746h666q52 0 89-37t36-88v-417q0-52-36-88t-89-37h-104l-62 84h166q18 0 30 12t12 29v417q0 17-12 29t-30 13h-666q-18 0-30-13t-12-29v-417q0-17 12-29t30-12h166l-62-84h-104q-52 0-89 37t-36 88v417q0 52 36 88t89 37z m416-750l-83 111-83-111h166z m-333-84l250 334 250-334h-500z" horiz-adv-x="1000" />

</font>
</defs>
</svg>
